Завантажити та скачати торренти українською


Темне місто [Режисерська версія] / Dark City [Director's cut] (1998) 1080p Ukr/Eng | Sub Eng

Нові коментарі

Нова тема   Відповісти
Автор Повідомлення
Anonymous 







2013-05-24 23:08  
Темне місто [Режисерська версія] / Dark City [Director's cut] (1998) 1080p Ukr/Eng | Sub Eng



Альтернативний український постер


Жанр: фантастика, трилер, детектив
Країна: США, Австралія

, премія Сатурн 1999 року у номінації "Кращий науково-фантастичний фільм"

Кінокомпанія: New Line Cinema, Mystery Clock Cinema
Режисер: Алекс Прояс / Alex Proyas
Актори: Руфус С'юелл / Rufus Sewell, Вільям Херт / William Hurt, Кіфер Сазерленд / Kiefer Sutherland, Дженніфер Коннеллі / Jennifer Connelly, Річард О`Брайєн / Richard O'Brien, Ієн Річардсон / Ian Richardson, Брюс Спенс / Bruce Spence, Колін Фрілз / Colin Friels, Джон Блузал / John Bluthal, Мітчел Бутел / Mitchell Butel та інші.

Сюжет:
Вбивцю що не пам'ятає свого імені і минулого, переслідує поліцейський інспектор Френк Бастед. Його шукає дружина Ема, за ним полюють чужаки, а він по обривках спогадів намагається розібратися в тому, що відбувається.

Автор "Ворону" використовував масу вражаючих візуальних спецефектів, щоб створити моторошнувату, похмуру атмосферу.

# Робочі назви картини – «Темна імперія» (Dark Empire) і «Темний світ» (Dark World).
# Багато декорацій цієї картини, включаючи дахи, будівлі і іншу натуру, використовувалися при зйомці фільму «Матриця» (The Matrix, 1999).
# Найменшого з прибульців – містера Сліпа – зіграли близнята, дівчинка Сатья Гумберт (Satya Gumbert) і її брат Ноа Гумберт (Noah Gumbert).
# Фільм знімався в Лос-Анджелесі (США, штат Каліфорнію) і Сіднеї (Австралія, штат Новий Південний Уельс).
# Алекс Пройас почав працювати над сценарієм у 1990 році.
Відмінності від театральної версії (обережно - спойлери!

• Деякі епізоди були зміщені, деякі додані, деякі видалені.
• У деяких епізодах була змінена музика.
• На початку фільму немає розповіді і вигляду міста. Камера з космосу опускається до лікаря Шребера, а потім до Джона, що прокидається у ванній.
• Змінено музику в обох піснях, які співає Емма.
• Доданий епізод, коли Джон зауважує свої спіралеподібні відбитки перед тим, як іде в кафе.
• Доданий епізод, в якому Бамстед отримує фото спіралеподібних відбитків пальців Джона, знятих з повії.
• У повії Мей тепер є маленька донька. Джон йде з квартири, коли помічає її.
• Подовжений епізод, в якому Емма приходить заявити про зникнення чоловіка.
• Подовжений перший епізод в лігві Чужих.
• У лазні, після розмови з доктором Шребером, містер Рука створює сходи для басейну.
• Перед епізодом першого налаштування додана розмова чоловіка з дружиною, які після налаштування стають багатими.
• Коли ми вдруге бачимо в офісі Бамстеда з акордеоном, він дивиться всередину кавової чашки і бачить, що всередині обертається спіраль. Потім він кидає погляд на фото спіралеподібних відбитків Джона.
• Трохи подовжений епізод, в якому містеру Рука вводять спогади Джона.
• Коли Емма і Бамстед знаходять тіло повії Мей, вони також знаходять її дочку, що ховаються під ліжком. У дочки вони бачать малюнок Чужих, що вбивають ножами її маму.
• Коли доктор Шребер відмовляється показати дорогу до океану, Джон катує його за допомогою здатності до налаштування.
• Доданий епізод з Бамстедом, що летить через космос.
• Коли Джон спускається в лігво Чужих, один з них оглядає його, бачить спіралеподібні відбитки пальців і повідомляє всім про те, що Джон еволюціонував.
• Подовжена битва розумів в кінці фільму.
• Після того, як у містера Бука встромлюють ніж, він обертається навколо вежі і з нього виходить блакитний туман.
рейтинг MPAA: R - особам до 17 років обов'язкова присутність батьків або дорослого опікуна
Вікова категорія: 16+

Тривалість: 01:51:43
Якість: 1080p
Відео:
кодек:
розмір кадру: 1920x808
бітрейт: 6494 кб/с

Аудіо # 1:
мова: українська Студія "ТВ+" на замовлення
переклад: багатоголосий закадровий
Ролі озвучили: Олександр Шепель (Джон Мердок / Руфус С'юелл), Євген Пашин і Ніна Касторф
кодек: 5.1
бітрейт: 448 кб/с

Аудіо # 2:
мова: англійська
переклад: оригінал
кодек: 5.1
бітрейт: 448 кб/с

Субтитри # 1:
мова: українська (форсовані - до місць без перекладу)
тип: програмні (м'які)
формат: *.srt

Субтитри # 2:
мова: англійська
тип: програмні (м'які)
формат: *.srt

Збережено оригінальні розділи, як на Blu-ray.
MediaInfo
General
Unique ID : 176019683984883131471503358271956363042 (0x846C2873EBA5FBE7BDA7F8ED2A92A722)
Complete name : Dark City.1998..1080p.Ukr.Eng.mkv
Format : Matroska
Format version : Version 4 / Version 2
File size : 5.77 GiB
Duration : 1h 51mn
Overall bit rate : 7 391 Kbps
Movie name : Темне місто / Dark City / Темный город [Director's cut] (1998)
Encoded date : UTC 2013-05-24 18:06:52
Writing application : mkvmerge v6.2.0 ('Promised Land') built on Apr 28 2013 12:22:01
Writing library : libebml v1.3.0 + libmatroska v1.4.0

Video
ID : 1
Format : AVC
Format/Info : Advanced Video Codec
Format profile : [email protected]
Format settings, CABAC : Yes
Format settings, ReFrames : 5 frames
Codec ID : V_MPEG4/ISO/AVC
Duration : 1h 51mn
Bit rate : 6 494 Kbps
Width : 1 920 pixels
Height : 808 pixels
Display aspect ratio : 2.40:1
Frame rate mode : Constant
Frame rate : 23.976 fps
Color space : YUV
Chroma subsampling : 4:2:0
Bit depth : 8 bits
Scan type : Progressive
Bits/(Pixel*Frame) : 0.175
Stream size : 4.95 GiB (86%)
Title : Темне місто / Dark City / Темный город [Director's cut] (1998), rip by Boriy
Writing library : core 132 r2310 76a5c3a
Encoding settings : cabac=1 / ref=5 / deblock=1:0:0 / analyse=0x3:0x113 / me=umh / subme=10 / psy=1 / psy_rd=1.00:0.10 / mixed_ref=1 / me_range=32 / chroma_me=1 / trellis=2 / 8x8dct=1 / cqm=0 / deadzone=21,11 / fast_pskip=0 / chroma_qp_offset=-2 / threads=12 / lookahead_threads=1 / sliced_threads=0 / nr=0 / decimate=0 / interlaced=0 / bluray_compat=0 / constrained_intra=0 / bframes=5 / b_pyramid=2 / b_adapt=2 / b_bias=0 / direct=3 / weightb=1 / open_gop=0 / weightp=2 / keyint=240 / keyint_min=23 / scenecut=40 / intra_refresh=0 / rc=2pass / mbtree=0 / bitrate=6494 / ratetol=1.0 / qcomp=0.60 / qpmin=0 / qpmax=69 / qpstep=4 / cplxblur=20.0 / qblur=0.5 / ip_ratio=1.40 / pb_ratio=1.30 / aq=2:0.80
Language : English
Default : Yes
Forced : No

Audio #1
ID : 2
Format : AC-3
Format/Info : Audio Coding 3
Mode extension : CM (complete main)
Format settings, Endianness : Big
Codec ID : A_AC3
Duration : 1h 51mn
Bit rate mode : Constant
Bit rate : 448 Kbps
Channel(s) : 6 channels
Channel positions : Front: L C R, Side: L R, LFE
Sampling rate : 48.0 KHz
Bit depth : 16 bits
Compression mode : Lossy
Stream size : 358 MiB (6%)
Title : MVO [TV+, ICTV] 5.1 448 Kbps [Hurtom-imonko, MAKAPOHHIK]
Language : Ukrainian
Default : Yes
Forced : No

Audio #2
ID : 3
Format : AC-3
Format/Info : Audio Coding 3
Mode extension : CM (complete main)
Format settings, Endianness : Big
Codec ID : A_AC3
Duration : 1h 51mn
Bit rate mode : Constant
Bit rate : 448 Kbps
Channel(s) : 6 channels
Channel positions : Front: L C R, Side: L R, LFE
Sampling rate : 48.0 KHz
Bit depth : 16 bits
Compression mode : Lossy
Stream size : 358 MiB (6%)
Title : Original
Language : English
Default : No
Forced : No

Text #1
ID : 4
Format : UTF-8
Codec ID : S_TEXT/UTF8
Codec ID/Info : UTF-8 Plain Text
Title : Ukr forced [Hurtom-imonko]
Language : Ukrainian
Default : Yes
Forced : Yes

Text #2
ID : 5
Format : UTF-8
Codec ID : S_TEXT/UTF8
Codec ID/Info : UTF-8 Plain Text
Title : Eng full
Language : English
Default : No
Forced : No

Menu
00:00:00.000 : :Chapter 1
00:02:00.078 : :Chapter 2
00:07:20.022 : :Chapter 3
00:12:09.520 : :Chapter 4
00:19:22.286 : :Chapter 5
00:23:00.754 : :Chapter 6
00:27:40.867 : :Chapter 7
00:34:35.448 : :Chapter 8
00:48:26.653 : :Chapter 9
00:57:14.180 : :Chapter 10
01:05:31.677 : :Chapter 11
01:11:08.722 : :Chapter 12
01:16:27.874 : :Chapter 13
01:19:31.266 : :Chapter 14
01:29:16.809 : :Chapter 15
01:40:04.498 : :Chapter 16
01:45:08.302 : :Chapter 17
01:51:43.488 : :Chapter 18


Джерела та подяки: ріп відео, оригінальні звук та субтитри - boriy (рутор); українська доріжка - imonko, MAKAPOHHIK; українські субтитри - imonko, українські постери - somnambula, Воїн (всі - Гуртом).

Особиста оцінка: 8 - рекомендую любителям фантастики, нуару і просто фороших фільмів та акторів.

ЗАЛИШАЙТЕСЬ ЯКОМОГА ДОВШЕ НА РОЗДАЧІ, НЕ ОБМЕЖУЙТЕ ШВИДКІСТЬ ВІДДАЧІ!

СКАЧАВ САМ - ДАЙ СКАЧАТИ ІНШИМ


Срібний реліз (на рейтинг впливає 50% завантаженого)
 Трекер:    Зареєстрований   

Завантажити / скачати фільм українською



відео для новачків



 Зареєстрований:   2013-05-24 23:08
 Розмір:   5.77 GB 
 Оцінка фільму:   7.1/10 (Голосів: 32)
   
Nearga 
Новенький


З нами з: 09.11.12
Востаннє: 22.10.16
Повідомлень: 4

2014-11-26 19:32  
Червоненько дякую
Ваш часовий пояс: GMT + 2 Години

Нова тема   Відповісти