Завантажити та скачати торренти українською


Джонні Мнемонік / Johnny Mnemonic (1995) 1080p Ukr/Eng | Sub Eng

Нові коментарі

Нова тема   Відповісти
Автор Повідомлення
Anonymous 







2013-05-23 21:59  
Джонні Мнемонік / Johnny Mnemonic (1995) 1080p Ukr/Eng | Sub Eng



Жанр: бойовик, фантастика, трилер, кіберпанк
Країна: США, Канада



Кінокомпанія: TriStar Pictures, Alliance Communications Corporation, Cinévision
Режисер: Роберт Лонго / Robert Longo
Сценарій: Вільям Гібсон / William Gibson (засновник кіберпанку, вікіпедія)
Актори: Кіану Рівз / Keanu Reeves, Діна Мейер / Dina Meyer, Дольф Лундгрен / Dolph Lundgren, Айс Ті / Ice-T, Дон Френкс / Don Francks, Такеші Кітано / Takeshi Kitano та інші.

Сюжет:
2021 рік. Людству загрожує страшна хвороба: синдром нервового виснаження. Кур'єр-мнемонік Джонні повинен доставити формулу унікальних ліків, здатних вилікувати людей. Він береже її в найнадійнішому місці: у власному мозку. Але занадто багато людей хочуть заволодіти цими безцінними даними, і на Джонні починається полювання. До того ж, якщо не витягнути інформацію протягом 24-х годин, він загине. Ставки занадто високі...

Ще варіант сюжету:
У наскрізь кібернетизованому майбутньому найцінніший товар - інформація, що доставляється кур'єрами в найнадійнішому місці - в їх власному мозку. Для того, щоб досягти успіху в цьому бізнесі, Джоні «стер» спогади дитинства і розширив пам'ять надсучасних комп'ютерних пристосувань.
Але й цього виявилося замало для інформації, яку він узявся доставити. Якщо її вчасно не вивантажити, то Джоні загине. Ставки великі, і інформацію з голови (можна і з головою, але без Джоні) бажає отримати всюдисуща японська мафія, що підключає до такої тонкої справи проповідника ...
Цікаве про фільм

• Спочатку на головні ролі планувалися Вел Кілмер і Джейн Марч.
• Японська версія фільму довше прокатної (у цьому релізі) на сім хвилин.
• На момент написання сценарію (1993 рік) планувалося зробити «Джонні Мнемоніка» чорно-білої картиною з бюджетом не більше мільйона доларів.
• Картина перебувала на стадіїї пост-продакшена майже рік.
• Фільм був практично готовий, коли на екрани вийшов фільм «Швидкість» Яна де Бонта, відразу перетворивши Кіану Рівза у зірку жанру «екшн». Тому, боси студії Sony наказали перезняти частину сцен, додати у фільм перестрілок і бійок (спочатку фільм замислювався як іронічна суміш «нео-нуару» та «кіберпанку» без будь-яких натяків на звання «блокбастера»), а також порядком «порізати »роль Дольфа Лундгрена, яку вважали надто «антирелігійною».
• Сценарист картини Вільям Гібсон стверджує, що знятий Робертом Лонго фільм і прокатна версія «Джонні Мнемоніка» - це небо і земля. За його ж словами, студія вирізала 90% ролі Дольфа Лундгрена.
• Фільм знятий за однойменною повістю Вільяма Гібсона.
• Зйомки фільму відбувалися в основному в Канаді (в Торонто і Монреалі), але деякі епізоди знімалися в невеликому американському місті Ньюарк (штат Нью-Джерсі).
• В одній зі сцен, коли бойовик якудза стріляє з базуки, він тримає її задом наперед. І взагалі велика частина озброєння, показана у фільмі, є зброєю для пейнтболу.
• Композитор Майкл Денна написав музику до японської версії фільму.
• Повна версія фільму в Японії мала хронометраж 107 хвилин.
• Охоронця Джейн в оповіданні немає взагалі - Гібсон придумав її спеціально для екранізації.
• Обсяг інформації, яку здатний перевозити Джонні, всього 80 гігабайт; максимально можливий - 160 гігабайт.
• Час, необхідний на завантаження 320 Гб - 55 секунд, відповідно швидкість завантаження 5,81 Гбсек або 46,5 Гігабітсек.
• На момент виходу фільму (1995 рік) ємність середнього жорсткого диска становила до 1 гігабайта, максимальна - 2 гігабайти.
Тривалість: 01:36:41
Якість: 1080p
Відео:
кодек:
розмір кадру: 1920x1080
бітрейт: 9956 кб/с

Аудіо # 1:
мова: українська
переклад: двоголосий закадровий
Ролі озвучили: Анатолій Пашнін та Олена Яблучна
кодек: 5.1
бітрейт: 384 кб/с

Аудіо # 2:
мова: англійська
переклад: оригінал
кодек: 5.1
бітрейт: 640 кб/с

Субтитри:
мова: англійська
тип: програмні (м'які)
формат: *.srt

Збережено оригінальні розділи, як на Blu-ray.
MediaInfo
General
Unique ID : 204534938172781957330186470434394491769 (0x99DFFF079EF16C289B3457F0D33A4B79)
Complete name : Johnny.Mnemonic.1995..1080p.Ukr.Eng.mkv
Format : Matroska
Format version : Version 4 / Version 2
File size : 7.42 GiB
Duration : 1h 36mn
Overall bit rate : 11.0 Mbps
Movie name : Джонні Мнемонік / Johnny Mnemonic / Джонни Мнемоник (1995)
Encoded date : UTC 2013-05-23 15:18:43
Writing application : mkvmerge v6.2.0 ('Promised Land') built on Apr 28 2013 12:22:01
Writing library : libebml v1.3.0 + libmatroska v1.4.0

Video
ID : 1
Format : AVC
Format/Info : Advanced Video Codec
Format profile : [email protected]
Format settings, CABAC : Yes
Format settings, ReFrames : 4 frames
Codec ID : V_MPEG4/ISO/AVC
Duration : 1h 36mn
Bit rate : 9 956 Kbps
Width : 1 920 pixels
Height : 1 080 pixels
Display aspect ratio : 16:9
Frame rate mode : Constant
Frame rate : 23.976 fps
Color space : YUV
Chroma subsampling : 4:2:0
Bit depth : 8 bits
Scan type : Progressive
Bits/(Pixel*Frame) : 0.200
Stream size : 6.58 GiB (89%)
Title : Джонні Мнемонік / Johnny Mnemonic / Джонни Мнемоник (1995), rip by Boriy
Writing library : core 132 r2310 76a5c3a
Encoding settings : cabac=1 / ref=4 / deblock=1:-3:-3 / analyse=0x3:0x113 / me=umh / subme=10 / psy=1 / psy_rd=1.00:0.10 / mixed_ref=1 / me_range=32 / chroma_me=1 / trellis=2 / 8x8dct=1 / cqm=0 / deadzone=21,11 / fast_pskip=0 / chroma_qp_offset=-2 / threads=12 / lookahead_threads=1 / sliced_threads=0 / nr=0 / decimate=0 / interlaced=0 / bluray_compat=0 / constrained_intra=0 / bframes=5 / b_pyramid=2 / b_adapt=2 / b_bias=0 / direct=3 / weightb=1 / open_gop=0 / weightp=2 / keyint=240 / keyint_min=23 / scenecut=40 / intra_refresh=0 / rc=2pass / mbtree=0 / bitrate=9956 / ratetol=1.0 / qcomp=0.60 / qpmin=0 / qpmax=69 / qpstep=4 / cplxblur=20.0 / qblur=0.5 / ip_ratio=1.40 / pb_ratio=1.30 / aq=1:0.80
Language : English
Default : Yes
Forced : No

Audio #1
ID : 2
Format : AC-3
Format/Info : Audio Coding 3
Mode extension : CM (complete main)
Format settings, Endianness : Big
Codec ID : A_AC3
Duration : 1h 36mn
Bit rate mode : Constant
Bit rate : 384 Kbps
Channel(s) : 6 channels
Channel positions : Front: L C R, Side: L R, LFE
Sampling rate : 48.0 KHz
Bit depth : 16 bits
Compression mode : Lossy
Stream size : 266 MiB (3%)
Title : MVO [KINO] 5.1 384 Kbps [Hurtom-_oles]
Language : Ukrainian
Default : Yes
Forced : No

Audio #2
ID : 3
Format : AC-3
Format/Info : Audio Coding 3
Mode extension : CM (complete main)
Format settings, Endianness : Big
Codec ID : A_AC3
Duration : 1h 36mn
Bit rate mode : Constant
Bit rate : 640 Kbps
Channel(s) : 6 channels
Channel positions : Front: L C R, Side: L R, LFE
Sampling rate : 48.0 KHz
Bit depth : 16 bits
Compression mode : Lossy
Stream size : 443 MiB (6%)
Title : Original 5.1 640 Kbps
Language : English
Default : No
Forced : No

Text
ID : 4
Format : UTF-8
Codec ID : S_TEXT/UTF8
Codec ID/Info : UTF-8 Plain Text
Title : Eng full
Language : English
Default : No
Forced : No

Menu
00:00:00.000 : :Chapter 1
00:06:55.206 : :Chapter 2
00:15:55.454 : :Chapter 3
00:22:11.913 : :Chapter 4
00:33:15.493 : :Chapter 5
00:37:56.273 : :Chapter 6
00:46:44.968 : :Chapter 7
00:54:26.930 : :Chapter 8
01:01:41.363 : :Chapter 9
01:08:22.555 : :Chapter 10
01:16:36.216 : :Chapter 11
01:23:23.206 : :Chapter 12


Джерела та подяки: ріп відео, оригінальні звук та субтитри - boriy (рутор); українська доріжка - _oles - зведення, Merdiff та MAKAPOHHIK - запис з ТБ; український постер - Shkval (Musketeer) (всі - Гуртом).

Особиста оцінка: 8 - класика кіберпанку, Кіану Рівз та Дольф Лундгрен, старі добрі 90-ті...

ЗАЛИШАЙТЕСЬ ЯКОМОГА ДОВШЕ НА РОЗДАЧІ, НЕ ОБМЕЖУЙТЕ ШВИДКІСТЬ ВІДДАЧІ!

СКАЧАВ САМ - ДАЙ СКАЧАТИ ІНШИМ


Срібний реліз (на рейтинг впливає 50% завантаженого)
 Трекер:    Зареєстрований   

Завантажити / скачати фільм українською



відео для новачків



 Зареєстрований:   2013-05-23 21:59
 Розмір:   7.42 GB 
 Оцінка фільму:   5/10 (Голосів: 18)
   
Інші релізи
Ваш часовий пояс: GMT + 2 Години

Нова тема   Відповісти