Завантажити та скачати торренти українською


Morphine Suffering - Світло не згасне (2011) [FLAC] | Metalcore

Нові коментарі

Нова тема   Відповісти
Останній раз роздавалося Dragowerewolf (2016-11-30)
Автор Повідомлення
Anonymous 







2013-05-23 15:29  
Morphine Suffering - Світло не згасне (2011) [FLAC] | Metalcore

Morphine Suffering - Світло не згасне (2011) [FLAC] | Metalcore

Стиль:Metalcore
Країна, місто: Україна, Боярка
Сайти: Офіційний сайт
Видавець: MORTON STUDIO
Виконавці:
Юрій Ключник - вокал
Влад Рильський - гітари
Максим Живолуп - бас
Олексій Шатохін - ударні

Пісні:
    1. Intro
    2. Чорний ангел
    3. Ну cкільки ще?
    4. Останься
    5. Ти лише сон
    6. Моє серце
    7. Новий фільм
    8. Тане сніг
    9. Залізна голова
    10. Світло не згасне
    11. Білий ангел

Тривалість: 00:35:09
Мова: українська (2, 3, 5-11), російська (4), інструментал (1)
Аудіо-кодек: FLAC
Бітрейт: 1091 кб/с
Джерело: Рутрекер.орг
Додаткова інформація:
Перший повноформатний альбом гурту
log

Exact Audio Copy V1.0 beta 3 from 29. August 2011

EAC extraction logfile from 8. January 2012, 20:04

Morphine Suffering / Світло не Згасне

Used drive : ASUS DRW-1814BLT Adapter: 0 ID: 1

Read mode : Secure
Utilize accurate stream : Yes
Defeat audio cache : Yes
Make use of C2 pointers : No

Read offset correction : 6
Overread into Lead-In and Lead-Out : Yes
Fill up missing offset samples with silence : Yes
Delete leading and trailing silent blocks : No
Null samples used in CRC calculations : Yes
Used interface : Native Win32 interface for Win NT & 2000

Used output format : User Defined Encoder
Selected bitrate : 1024 kBit/s
Quality : High
Add ID3 tag : No
Command line compressor : C:\Program Files\FLAC\flac.exe
Additional command line options : -V -8 -T "Date=%year%" -T "Genre=%genre%" %source%

TOC of the extracted CD

Track | Start | Length | Start sector | End sector
---------------------------------------------------------
1 | 0:00.00 | 1:11.53 | 0 | 5377
2 | 1:11.53 | 3:45.53 | 5378 | 22305
3 | 4:57.31 | 3:34.68 | 22306 | 38423
4 | 8:32.24 | 2:42.47 | 38424 | 50620
5 | 11:14.71 | 2:52.00 | 50621 | 63520
6 | 14:06.71 | 3:17.60 | 63521 | 78355
7 | 17:24.56 | 3:12.28 | 78356 | 92783
8 | 20:37.09 | 3:12.42 | 92784 | 107225
9 | 23:49.51 | 3:15.45 | 107226 | 121895
10 | 27:05.21 | 4:04.08 | 121896 | 140203
11 | 31:09.29 | 3:59.38 | 140204 | 158166

Range status and errors

Selected range

Filename E:\Morphine Suffering - Світло не згасне [2010]\Morphine Suffering - Світло не Згасне.wav

Peak level 98.8 %
Extraction speed 4.3 X
Range quality 100.0 %
Test CRC F888C121
Copy CRC F888C121
Copy OK

No errors occurred

AccurateRip summary

Track 1 not present in database
Track 2 not present in database
Track 3 not present in database
Track 4 not present in database
Track 5 not present in database
Track 6 not present in database
Track 7 not present in database
Track 8 not present in database
Track 9 not present in database
Track 10 not present in database
Track 11 not present in database

None of the tracks are present in the AccurateRip database

End of status report

---- CUETools DB Plugin V2.1.3

[CTDB TOCID: 6Hb4S3w4b9nHd5nU4OUYTN1Fffo-] disk not present in database, Submit result: 6Hb4S3w4b9nHd5nU4OUYTN1Fffo- has been uploaded

==== Log checksum A8D45FEF62ED23ADC0E75BEA6CDFD8EA515B0E3F34CCDB6D3ADD92BF646904FC ====
Якщо Ви справді бажаєте підтримати українське - після прослуховування, якщо музика вам сподобалась, придбайте ліцензійний диск. Підтримаймо вітчизняних виконавців!


Срібний реліз (на рейтинг впливає 50% завантаженого)
 Трекер:    Зареєстрований   

Завантажити / скачати українську музику



відео для новачків



 Зареєстрований:   2013-05-23 15:29
 Розмір:   275 MB 
 Оцінка музики:   10/10 (Голосів: 11)
   
ssTAss 
Модератор музики


З нами з: 05.07.08
Востаннє: 05.12.16
Повідомлень: 10939

2014-04-07 22:20  
скани від Funky_Soul
тиць









Finch 
Новенький


З нами з: 29.11.09
Востаннє: 14.09.16
Повідомлень: 2

2016-01-16 23:30  
Є в когось альбом 2015 року у flac? Не можу знайти...
Ваш часовий пояс: GMT + 2 Години

Нова тема   Відповісти