Завантажити та скачати торренти українською


25-та година / 25th Hour (2002) 720p Ukr/Eng | Sub Eng

Нові коментарі

Нова тема   Відповісти
Автор Повідомлення
TNT.KOT 
Відео Гуртом - субтитрування
Відео Гуртом - субтитрування


З нами з: 17.03.12
Востаннє: 06.12.16
Повідомлень: 116

2013-05-23 09:17  
25-та година / 25th Hour (2002) 720p Ukr/Eng | Sub Eng



Жанр: драма, кримінал
Країна: США



Кінокомпанія: 25th Hour Productions, 40 Acres & A Mule Filmworks, Gamut Films
Режисер: Спайк Лі
Актори: Едвард Нортон, Філіп Сеймур Хоффман, Беррі Пеппер, Розаріо Доусон, Ганна Пакуїн, Брайан Кокс, Тоня Сірагуса, Лєван Учанейшвілі, Тоня Девон, Міша Кузнєцов

Сюжет:
У фільмі описується останній день вільного життя Монті Брогана (Едвард Нортон), засудженого на сім років в'язниці за торгівлю наркотиками. Решта 24 години він проводить в компанії своїх рідних, друзів, ділових партнерів і коханої дівчини Натурель.Монті, який мріяв свого часу стати пожежником, але в підсумку ступила на фатальну стезю наркодилера, прощається з минулим і намагається переосмислити своє життя ...
Цікаві Факти
У сцені бійки Баррі Пеппер випадково розбив ніс Едварду Нортону.
Тобі Магуайр купив права на роман Девіда Бениоффа з розрахунком на те, що він сам зіграє головну роль. Проте у результаті актор віддав перевагу фільм «Людина-павук» і залишився в проекті лише як продюсер.
Протягом п'ятихвилинного монологу в туалеті Монті Броган 40 разів вимовив слово «fuck».У тій же сцені він згадує про рабство, і його фраза співзвучна з тією, що вимовив герой Нортона у фільмі «Американська історія Ікс».З «Американської історією Ікс» «25-та година» схожий і в інших моментах: в обох фільмах у Едварда Нортона однакова зачіска і борода, його батько - пожежний, а сам він - злочинець.
У Монті вдома висить постер фільму «Холоднокровний Люк». Враховуючи те, що Монті скоро відправиться за грати, такий постер символічний - «Люк» розповідає про людину, яка кілька разів намагався втекти з в'язниці.
Мері Д'Аннуціо повинна була зіграти Бріттані Мерфі, але вона вибула з проекту і була замінена на Ганну Пакуін.
На роль Натурель Рів'єри, яку зіграла Розаріо Доусон, пробувалася співачка Аліша Кіз.Це перший фільм, деякі сцени якого були зняті на місці трагедії 11 вересня.
Тривалість: 02:14:43
Якість:
Відео:
кодек:
розмір кадру: 1280 х 720
бітрейт: 4260 кб/с

Аудіо # 1:
мова: українська
переклад: багатоголосий закадровий
кодек: 5.1
бітрейт: 384 кб/с

Аудіо # 2:
мова: англійська
переклад: оригінал
кодек: 5.1
бітрейт: 384 кб/с

Джерело озвучення:


Субтитри:
мова: англійська
тип: пререндерні
формат: *.srt
MediaInfo
General
Unique ID : 246035898530694148832835107141693736052 (0xB918CA5A1BCE25D0B20F0987518C0474)
Complete name : E:\kino\mobi\25th Hour (2002) 720p UkrEng.mkv
Format : Matroska
Format version : Version 2
File size : 4.73 GiB
Duration : 2h 14mn
Overall bit rate : 5 030 Kbps
Movie name : 25th Hour (2002)
Encoded date : UTC 2013-05-23 06:24:32
Writing application : mkvmerge v5.0.0 ('Die Wahre Liebe') built on Sep 25 2011 20:33:49
Writing library : libebml v1.2.2 + libmatroska v1.3.0

Video
ID : 1
Format : AVC
Format/Info : Advanced Video Codec
Format profile : [email protected]
Format settings, CABAC : Yes
Format settings, ReFrames : 6 frames
Codec ID : V_MPEG4/ISO/AVC
Duration : 2h 14mn
Bit rate : 4 260 Kbps
Width : 1 280 pixels
Height : 720 pixels
Display aspect ratio : 16:9
Frame rate mode : Constant
Frame rate : 23.976 fps
Color space : YUV
Chroma subsampling : 4:2:0
Bit depth : 8 bits
Scan type : Progressive
Bits/(Pixel*Frame) : 0.193
Stream size : 3.92 GiB (83%)
Title : 25th.Hour.2002
Writing library : core 59 r851M e11ef38
Encoding settings : cabac=1 / ref=6 / deblock=1:-3:-3 / analyse=0x3:0x113 / me=umh / subme=7 / me-prepass=0 / brdo=1 / mixed_ref=1 / me_range=16 / chroma_me=1 / trellis=0 / 8x8dct=1 / cqm=0 / deadzone=6,4 / chroma_qp_offset=0 / threads=3 / nr=0 / decimate=0 / mbaff=0 / fgo=10 / bframes=3 / b_pyramid=1 / b_adapt=1 / b_bias=0 / direct=3 / wpredb=1 / bime=1 / keyint=250 / keyint_min=25 / scenecut=40(pre) / rc=2pass / bitrate=4260 / ratetol=1.0 / rceq='blurCplx^(1-qComp)' / qcomp=1.00 / qpmin=10 / qpmax=51 / qpstep=4 / cplxblur=20.0 / qblur=0.5 / ip_ratio=1.40 / pb_ratio=1.15 / aq=2:1.00
Language : English
Default : Yes
Forced : No

Audio #1
ID : 2
Format : AC-3
Format/Info : Audio Coding 3
Mode extension : CM (complete main)
Format settings, Endianness : Big
Codec ID : A_AC3
Duration : 2h 14mn
Bit rate mode : Constant
Bit rate : 384 Kbps
Channel(s) : 6 channels
Channel positions : Front: L C R, Side: L R, LFE
Sampling rate : 48.0 KHz
Bit depth : 16 bits
Compression mode : Lossy
Stream size : 370 MiB (8%)
Language : Ukrainian
Default : Yes
Forced : No

Audio #2
ID : 3
Format : AC-3
Format/Info : Audio Coding 3
Mode extension : CM (complete main)
Format settings, Endianness : Big
Codec ID : A_AC3
Duration : 2h 14mn
Bit rate mode : Constant
Bit rate : 384 Kbps
Channel(s) : 6 channels
Channel positions : Front: L C R, Side: L R, LFE
Sampling rate : 48.0 KHz
Bit depth : 16 bits
Compression mode : Lossy
Stream size : 370 MiB (8%)
Language : English
Default : No
Forced : No

Text
ID : 4
Format : UTF-8
Codec ID : S_TEXT/UTF8
Codec ID/Info : UTF-8 Plain Text
Language : English
Default : Yes
Forced : No
Скріншоти




за надану звукову доріжку подяка: Romario_O
подяка : somnambula за укр. постер

Джерело: &
Особиста оцінка: 9 - останні 24 години на волі


 Трекер:    Зареєстрований   

Завантажити / скачати фільм українською



відео для новачків



 Зареєстрований:   2013-05-23 09:17
 Розмір:   4.73 GB 
 Оцінка фільму:   8.5/10 (Голосів: 11)
   
Інші релізи
   25-та година / 25th Hour (2002) Yarik M  2 / 0   2.18 GB   2014-07-07 09:33 
Nucleo 
Новенький


З нами з: 13.02.09
Востаннє: 05.12.16
Повідомлень: 10

2013-05-23 21:03  
Один з найулюбленіших фільмів. Раджу
Ваш часовий пояс: GMT + 2 Години

Нова тема   Відповісти