Завантажити та скачати торренти українською


Гордість і Слава / Pride and Glory (2008) 1080p Ukr/Eng | Sub Ukr/Eng

Нові коментарі

Нова тема   Відповісти
Автор Повідомлення
Anonymous 







2013-05-22 17:32  
Гордість і Слава / Pride and Glory (2008) 1080p Ukr/Eng | Sub Ukr/Eng



Альтернативні постери






Жанр: трилер, драма, кримінальний
Країна: США, Німеччина



Кінокомпанія: New Line Cinema, Solaris, О'Connor Brothers, Avery Pix, KUMAR Mobiliengesellschaft mbH & Co. Projekt Nr. 1 KG
Режисер: Гевін О `Коннор / Gavin O'Connor
Актори: Колін Фаррелл / Colin Farrell, Едвард Нортон / Edward Norton, Джон Войт / Jon Voight, Ной Еммеріх / Noah Emmerich, Дженніфер Ель / Jennifer Ehle, Джон Ортіз / John Ortiz, Френк Грілло / Frank Grillo, Шиа Вігхем / Shea Whigham, Лейк Белл / Lake Bell, Кармен Еджого / Carmen Ejogo

Сюжет:
Нью-йоркський поліцейський Рей виріс на поняттях добра і законності. Захищати порядок - непохитна основа його роду, сімейна традиція. З самого дитинства зі свояком він виховувався в дусі «служити й захищати». Він завжди мріяв стати поліцейським, але навіть і уявити собі не міг, через яке пекло належало пройти його світогляду. Одного разу в місті відбувається вбивство чотирьох поліцейських. Розкриття цього злочину стає для Рея справою честі. У ході розслідування з'ясовується, що до вбивства причетний його старший брат. Все те, у що Рей свято вірив, всі його ідеали поставлені під удар. Як вчинити: слідувати букві закону або слідувати інтересам сім'ї?


рейтинг MPAA: R - особам до 17 років обов'язкова присутність батьків або дорослого опікуна
Вікова категорія: 16+

Тривалість: 02:10:09
Якість: 1080p
Відео:
кодек:
розмір кадру: 1920x1080
бітрейт: 10188 кб/с

Аудіо # 1:
мова: українська
переклад: багатоголосий закадровий
Ролі озвучили: Юрій Гребельник (Jimmy Egan / Колін Фаррелл, Анатолій Пашнін (Ray Tierney / Едвард Нортон), Євген Пашин і один невстановлений жіночий голос.
кодек: 5.1
бітрейт: 448 кб/с

Аудіо # 2:
мова: англійська
переклад: оригінал
кодек: 5.1
бітрейт: 640 кб/с

Субтитри # 1:
мова: українська
тип: програмні (м'які)
формат: *.srt

Субтитри # 2:
мова: англійська
тип: програмні (м'які)
формат: *.srt

Збережено оригінальні розділи, як на Blu-ray.
MediaInfo та
[info]: frame I:1030 Avg QP:19.81 size:142076
[info]: frame P:53127 Avg QP:21.10 size: 80289
[info]: frame B:133081 Avg QP:23.51 size: 40656
==============================================================================
General
Unique ID : 221878263027843393606458112740908241307 (0xA6EC32F6BC754A90B1711ED6BA42919B)
Complete name : Pride.and.Glory.2008..1080p.Ukr.Eng.mkv
Format : Matroska
Format version : Version 4 / Version 2
File size : 10.2 GiB
Duration : 2h 10mn
Overall bit rate : 11.3 Mbps
Movie name : Гордість і Слава / Pride and Glory / Гордость и слава (2008)
Encoded date : UTC 2013-05-22 13:42:51
Writing application : mkvmerge v6.2.0 ('Promised Land') built on Apr 28 2013 12:22:01
Writing library : libebml v1.3.0 + libmatroska v1.4.0

Video
ID : 1
Format : AVC
Format/Info : Advanced Video Codec
Format profile : [email protected]
Format settings, CABAC : Yes
Format settings, ReFrames : 4 frames
Codec ID : V_MPEG4/ISO/AVC
Duration : 2h 10mn
Bit rate : 10.2 Mbps
Width : 1 920 pixels
Height : 1 080 pixels
Display aspect ratio : 16:9
Frame rate mode : Constant
Frame rate : 23.976 fps
Color space : YUV
Chroma subsampling : 4:2:0
Bit depth : 8 bits
Scan type : Progressive
Bits/(Pixel*Frame) : 0.205
Stream size : 9.05 GiB (88%)
Title : Гордість і Слава / Pride and Glory / Гордость и слава (2008), rip by WIDDER
Writing library : core 132 r2310 76a5c3a
Encoding settings : cabac=1 / ref=4 / deblock=1:-3:-3 / analyse=0x3:0x133 / me=umh / subme=11 / psy=1 / psy_rd=1.00:0.00 / mixed_ref=1 / me_range=64 / chroma_me=1 / trellis=2 / 8x8dct=1 / cqm=0 / deadzone=21,11 / fast_pskip=0 / chroma_qp_offset=-2 / threads=12 / lookahead_threads=1 / sliced_threads=0 / nr=0 / decimate=1 / interlaced=0 / bluray_compat=0 / constrained_intra=0 / bframes=5 / b_pyramid=2 / b_adapt=2 / b_bias=0 / direct=3 / weightb=1 / open_gop=0 / weightp=2 / keyint=230 / keyint_min=22 / scenecut=40 / intra_refresh=0 / rc_lookahead=60 / rc=2pass / mbtree=0 / bitrate=10188 / ratetol=1.0 / qcomp=0.60 / qpmin=0 / qpmax=69 / qpstep=4 / cplxblur=20.0 / qblur=0.5 / vbv_maxrate=62500 / vbv_bufsize=78125 / nal_hrd=none / ip_ratio=1.40 / pb_ratio=1.30 / aq=2:0.80
Language : English
Default : Yes
Forced : No

Audio #1
ID : 2
Format : AC-3
Format/Info : Audio Coding 3
Mode extension : CM (complete main)
Format settings, Endianness : Big
Codec ID : A_AC3
Duration : 2h 10mn
Bit rate mode : Constant
Bit rate : 448 Kbps
Channel(s) : 6 channels
Channel positions : Front: L C R, Side: L R, LFE
Sampling rate : 48.0 KHz
Bit depth : 16 bits
Compression mode : Lossy
Stream size : 417 MiB (4%)
Title : MVO [Inter] 5.1 448 Kbps [Hurtom-Neo777, MAKAPOHHIK]
Language : Ukrainian
Default : Yes
Forced : No

Audio #2
ID : 3
Format : AC-3
Format/Info : Audio Coding 3
Mode extension : CM (complete main)
Format settings, Endianness : Big
Codec ID : A_AC3
Duration : 2h 10mn
Bit rate mode : Constant
Bit rate : 640 Kbps
Channel(s) : 6 channels
Channel positions : Front: L C R, Side: L R, LFE
Sampling rate : 48.0 KHz
Bit depth : 16 bits
Compression mode : Lossy
Stream size : 596 MiB (6%)
Title : Original 5.1 640 Kbps
Language : English
Default : No
Forced : No

Text #1
ID : 4
Format : UTF-8
Codec ID : S_TEXT/UTF8
Codec ID/Info : UTF-8 Plain Text
Title : Ukr full [Hurtom- igor911, fazza]
Language : Ukrainian
Default : No
Forced : No

Text #2
ID : 5
Format : UTF-8
Codec ID : S_TEXT/UTF8
Codec ID/Info : UTF-8 Plain Text
Title : Eng full
Language : English
Default : No
Forced : No

Menu
00:00:00.000 : :Chapter 01
00:05:00.000 : :Chapter 02
00:10:00.000 : :Chapter 03
00:15:00.000 : :Chapter 04
00:20:00.000 : :Chapter 05
00:25:00.000 : :Chapter 06
00:30:00.000 : :Chapter 07
00:35:00.000 : :Chapter 08
00:40:00.000 : :Chapter 09
00:45:00.000 : :Chapter 10
00:50:00.000 : :Chapter 11
00:55:00.000 : :Chapter 12
01:00:00.000 : :Chapter 13
01:05:00.000 : :Chapter 14
01:10:00.000 : :Chapter 15
01:15:00.000 : :Chapter 16
01:20:00.000 : :Chapter 17
01:25:00.000 : :Chapter 18
01:30:00.000 : :Chapter 19
01:35:00.000 : :Chapter 20
01:40:00.000 : :Chapter 21
01:45:00.000 : :Chapter 22
01:50:00.000 : :Chapter 23
01:55:00.000 : :Chapter 24
02:00:00.000 : :Chapter 25
02:05:00.000 : :Chapter 26
02:10:00.000 : :Chapter 27


Джерела та подяки: ріп відео, оригінальні звук та субтитри, українська доріжка - WIDDER (рутор); першоджерело української доріжки - Neo777 - зведення, MAKAPOHHIK - запис з ТБ; українські субтитри - fazza (idx+sub), власне розпізнавання, український постер - mrdavis (всі - Гуртом).
Окрема подяка Dim-ON'у за надані субтитри idx+sub.

Особиста оцінка: 8 - варто глянути на чудову гру Фаррела та Нортона.

ЗАЛИШАЙТЕСЬ ЯКОМОГА ДОВШЕ НА РОЗДАЧІ, НЕ ОБМЕЖУЙТЕ ШВИДКІСТЬ ВІДДАЧІ!

СКАЧАВ САМ - ДАЙ СКАЧАТИ ІНШИМ


 Трекер:    Зареєстрований   

Завантажити / скачати фільм українською



відео для новачків



 Зареєстрований:   2013-05-22 17:32
 Розмір:   10.25 GB 
 Оцінка фільму:   4.1/10 (Голосів: 16)
   
Інші релізи
Ваш часовий пояс: GMT + 2 Години

Нова тема   Відповісти