Завантажити та скачати торренти українською


Цирк дю Солей: Казковий світ / Cirque du Soleil: Worlds Away (2012) AVC

Нові коментарі

Нова тема   Відповісти
Останній раз роздавалося explorer (2016-10-15)
Автор Повідомлення
NeetScrool 
Відео Гуртом - фільмокрай
Відео Гуртом - фільмокрай


З нами з: 10.01.13
Востаннє: 03.12.16
Повідомлень: 2207

2013-05-22 09:38  
Цирк дю Солей: Казковий світ / Cirque du Soleil: Worlds Away (2012) AVC

Цирк дю Солей: Казковий світ / Cirque du Soleil: Worlds Away (2012) AVC


Жанр: фентезі
Країна: США



Кінокомпанія: Reel FX Creative Studios, Strange Weather Films, Cirque du Soleil Burlesco
Режисер: Ендрю Адамсон
Актори: Еріка Лінц, Ігор Заріпов, Лутс Галбхюбнер, Джон Кларк, Даллас Барнетт, Таня Дрюері, Сара Губолт, Аскья Мейбері, Деміен Ґордон, Зек Брікленд

Сюжет:
Дивовижна історія двох закоханих, яких розлучила доля, за мотивами кращих шоу Цирку дю Солей. Їм доведеться пройти через багато перешкод, щоб знову бути разом...


Тривалість: 01:31:12
Якість:
Відео:
кодек: (Hi10p)
розмір кадру: 720 х 400
бітрейт: ~ 843 кб/с

Аудіо:
мова: українська
переклад: професійний дубльований
кодек: 2.0
бітрейт: ~220 кб/с

Джерело озвучення:


Скріншоти











MI

General
Complete name : F:\RIP\Cirque du Soleil Worlds Away (2012) .mp4
Format : MPEG-4
Format profile : Base Media
Codec ID : isom
File size : 698 MiB
Duration : 1h 31mn
Overall bit rate mode : Variable
Overall bit rate : 1 070 Kbps
Movie name : Цирк дю Солей: Казковий світ
Performer : Sensetivity
Genre : Adventure, Drama
Recorded date : 2012-10-20
Encoded date : UTC 2013-05-22 03:18:19
Tagged date : UTC 2013-05-22 07:29:10
Cover : Yes
iTunEXTC : mpaa|PG|200|
iTunMOVI : <?xml version="1.0" encoding="UTF-8"?> / <!DOCTYPE plist PUBLIC "-//Apple//DTD PLIST 1.0//EN" "http://www.apple.com/DTDs/PropertyList-1.0.dtd"> / <plist version="1.0"> / <dict> / <key>cast</key> / <array> / <dict> / <key>name</key> / <string>Еріка Лінц</string> / </dict> / <dict> / <key>name</key> / <string>Ігор Заріпов</string> / </dict> / <dict> / <key>name</key> / <string>Лутс Галбхюбнер</string> / </dict> / <dict> / <key>name</key> / <string>Джон Кларк</string> / </dict> / <dict> / <key>name</key> / <string>Даллас Барнетт</string> / </dict> / <dict> / <key>name</key> / <string>Таня Дрюері</string> / </dict> / <dict> / <key>name</key> / <string>Сара Губолт</string> / </dict> / <dict> / <key>name</key> / <string>Аскья Мейбері</string> / </dict> / <dict> / <key>name</key> / <string>Деміен Ґордон</string> / </dict> / <dict> / <key>name</key> / <string>Зек Брікленд</string> / </dict> / </array> / <key>directors</key> / <array> / <dict> / <key>name</key> / <string>Ендрю Адамсон</string> / </dict> / </array> / <key>producers</key> / <array> / <dict> / <key>name</key> / <string>James Cameron</string> / </dict> / </array> / </dict> / </plist>
stik : 9
Xtra : WM/Publisher

Video
ID : 1
Format : AVC
Format/Info : Advanced Video Codec
Format profile : High [email protected]
Format settings, CABAC : Yes
Format settings, ReFrames : 16 frames
Codec ID : avc1
Codec ID/Info : Advanced Video Coding
Duration : 1h 31mn
Bit rate : 843 Kbps
Maximum bit rate : 7 925 Kbps
Width : 720 pixels
Height : 400 pixels
Display aspect ratio : 16:9
Frame rate mode : Constant
Frame rate : 23.976 fps
Color space : YUV
Chroma subsampling : 4:2:0
Bit depth : 10 bits
Scan type : Progressive
Bits/(Pixel*Frame) : 0.122
Stream size : 549 MiB (79%)
Writing library : core 125 r2200 999b753
Encoding settings : cabac=1 / ref=16 / deblock=1:-1:-1 / analyse=0x3:0x113 / me=umh / subme=9 / psy=1 / psy_rd=1.00:0.10 / mixed_ref=1 / me_range=21 / chroma_me=1 / trellis=2 / 8x8dct=1 / cqm=0 / deadzone=21,11 / fast_pskip=1 / chroma_qp_offset=-3 / threads=6 / lookahead_threads=1 / sliced_threads=0 / nr=0 / decimate=1 / interlaced=0 / bluray_compat=0 / constrained_intra=0 / bframes=16 / b_pyramid=2 / b_adapt=2 / b_bias=0 / direct=3 / weightb=1 / open_gop=0 / weightp=2 / keyint=240 / keyint_min=24 / scenecut=40 / intra_refresh=0 / rc_lookahead=50 / rc=2pass / mbtree=1 / bitrate=843 / ratetol=1.0 / qcomp=0.60 / qpmin=5 / qpmax=81 / qpstep=6 / cplxblur=20.0 / qblur=0.5 / ip_ratio=1.40 / aq=2:0.80
Encoded date : UTC 2013-05-22 03:18:19
Tagged date : UTC 2013-05-22 03:18:48

Audio
ID : 2
Format :
Format/Info : Advanced Audio Codec
Format profile : LC
Codec ID : 40
Duration : 1h 31mn
Bit rate mode : Variable
Bit rate : 220 Kbps
Maximum bit rate : 264 Kbps
Channel(s) : 2 channels
Channel positions : Front: L R
Sampling rate : 48.0 KHz
Compression mode : Lossy
Delay relative to video : 125ms
Stream size : 143 MiB (21%)
Encoded date : UTC 2013-05-22 03:18:43
Tagged date : UTC 2013-05-22 03:18:48
Джерело:
Особиста оцінка: 9 - закохався у ггню


 Трекер:    Зареєстрований   

Завантажити / скачати фільм українською



відео для новачків



 Зареєстрований:   2013-05-22 09:38
 Розмір:   698 MB 
 Оцінка фільму:   8.1/10 (Голосів: 10)
   
lopoptar 
Свій


З нами з: 24.01.14
Востаннє: 02.12.16
Повідомлень: 64

2016-01-04 22:04  
Шикарно!!!!!!!!!
Ваш часовий пояс: GMT + 2 Години

Нова тема   Відповісти