Завантажити та скачати торренти українською


Володар перснів: Трилогія / The Lord of the Rings: Trilogy (2001-2003) 720p-mini 2xUkr/Eng | Sub Eng

Нові коментарі

Нова тема   Відповісти
Автор Повідомлення
Zeus62 
Відео Гуртом - команда HD
Відео Гуртом - команда HD


З нами з: 29.12.08
Востаннє: 16.11.16
Повідомлень: 330

2013-05-21 21:57  
Володар перснів: Трилогія / The Lord of the Rings: Trilogy (2001-2003) 720p-mini 2xUkr/Eng | Sub Eng

Володар перснів: Трилогія / The Lord of the Rings: Trilogy (2001-2003) 720p-mini 2xUkr/Eng | Sub Eng


Жанр: екшн, пригодницький, фентезі
Країна: Нова Зеландія, США

Кінокомпанія: New Line Cinema, WingNut Films, The Saul Zaentz Company
Режисер: Пітер Джексон
Володар перснів: Хранителі персня / The Lord of the Rings: The Fellowship of the Ring (2001) 720p 2xUkr/Eng | Sub Eng

Володар перснів: Хранителі персня / The Lord of the Rings: The Fellowship of the Ring (2001) 720p 2xUkr/Eng | Sub Eng

Володар перснів: Трилогія / The Lord of the Rings: Trilogy (2001-2003) 720p-mini 2xUkr/Eng | Sub Eng

Альтернативний постер:
Володар перснів: Трилогія / The Lord of the Rings: Trilogy (2001-2003) 720p-mini 2xUkr/Eng | Sub Eng




Актори: Елайджа Вуд, Єн Маккеллен, Віґо Мортенсен, Шон Бін, Орландо Блум, Джон Різ-Девіс, Єн Гольм, Шон Естін, Біллі Бойд, Домінік Монаґан, Г'юґо Вівінґ, Кейт Бланшет, Лів Тайлер, Енді Серкіс

Сюжет:
Разом зі своїми супутниками та друзями Фродо вирушає у далеку і небезпечну дорогу, щоб виконати не менш небезпечну місію - знищити легендарний Перстень. І майже одразу його почали переслідувати слуги Темного Володаря. Підступний Саурон колись уже створив Перстень - і якщо він знову потрапить до його рук - то Середзем'я буде навіки втрачене.


Тривалість: 02:58:25
Якість: 720p
Відео:
кодек:
розмір кадру: 1280 х 532
бітрейт: 2731 кб/с

Аудіо # 1:
мова: українська
переклад: багатоголосий закадровий
кодек: 2.0
бітрейт: 192 кб/с

Аудіо # 2:
мова: українська
переклад: багатоголосий закадровий | ТВ+
кодек: 2.0
бітрейт: 192 кб/с

Аудіо # 3:
мова: англійська
переклад: оригінал
кодек: 5.1
бітрейт: 384 кб/с

Субтитри:
мова: англійська
тип: програмні (м'які)
формат: *.srt
MediaInfo:
File size : 4.36 GiB
Duration : 2h 58mn
Overall bit rate : 3 501 Kbps
Encoded date : UTC 2013-05-21 21:52:51
Writing application : mkvmerge v6.1.0 ('Old Devil') built on Mar 28 2013 20:35:55
Writing library : libebml v1.3.0 + libmatroska v1.4.0

Video
ID : 1
Format : AVC
Format/Info : Advanced Video Codec
Format profile : [email protected]
Format settings, CABAC : Yes
Format settings, ReFrames : 9 frames
Codec ID : V_MPEG4/ISO/AVC
Duration : 2h 58mn
Bit rate : 2 731 Kbps
Width : 1 280 pixels
Height : 532 pixels
Display aspect ratio : 2.40:1
Frame rate mode : Constant
Frame rate : 23.976 fps
Color space : YUV
Chroma subsampling : 4:2:0
Bit depth : 8 bits
Scan type : Progressive
Bits/(Pixel*Frame) : 0.167
Stream size : 3.32 GiB (76%)
Title : For Hurtom by Zeus62
Writing library : core 112
Encoding settings : cabac=1 / ref=9 / deblock=1:-3:-3 / analyse=0x3:0x113 / me=umh / subme=10 / psy=1 / psy_rd=1,00:0,00 / mixed_ref=1 / me_range=64 / chroma_me=1 / trellis=2 / 8x8dct=1 / cqm=0 / deadzone=21,11 / fast_pskip=1 / chroma_qp_offset=-2 / threads=9 / sliced_threads=0 / nr=0 / decimate=1 / interlaced=0 / constrained_intra=0 / bframes=9 / b_pyramid=2 / b_adapt=2 / b_bias=0 / direct=1 / weightb=1 / open_gop=0 / weightp=2 / keyint=240 / keyint_min=23 / scenecut=40 / intra_refresh=0 / rc_lookahead=50 / rc=2pass / mbtree=1 / bitrate=2731 / ratetol=1,0 / qcomp=0,60 / qpmin=3 / qpmax=51 / qpstep=4 / cplxblur=20,0 / qblur=0,5 / ip_ratio=1,40 / aq=1:1,00
Language : English
Default : Yes
Forced : No
Color primaries : BT.709
Transfer characteristics : BT.709
Matrix coefficients : BT.709

Audio #1
ID : 2
Format : AC-3
Format/Info : Audio Coding 3
Mode extension : CM (complete main)
Format settings, Endianness : Big
Codec ID : A_AC3
Duration : 2h 58mn
Bit rate mode : Constant
Bit rate : 192 Kbps
Channel(s) : 2 channels
Channel positions : Front: L R
Sampling rate : 48.0 KHz
Bit depth : 16 bits
Compression mode : Lossy
Delay relative to video : 200ms
Stream size : 245 MiB (5%)
Title : 1+1
Language : Ukrainian
Default : Yes
Forced : No

Audio #2
ID : 3
Format : AC-3
Format/Info : Audio Coding 3
Mode extension : CM (complete main)
Format settings, Endianness : Big
Codec ID : A_AC3
Duration : 2h 58mn
Bit rate mode : Constant
Bit rate : 192 Kbps
Channel(s) : 2 channels
Channel positions : Front: L R
Sampling rate : 48.0 KHz
Bit depth : 16 bits
Compression mode : Lossy
Stream size : 245 MiB (5%)
Title : TV+
Language : Ukrainian
Default : No
Forced : No

Audio #3
ID : 4
Format : AC-3
Format/Info : Audio Coding 3
Mode extension : CM (complete main)
Format settings, Endianness : Big
Codec ID : A_AC3
Duration : 2h 58mn
Bit rate mode : Constant
Bit rate : 384 Kbps
Channel(s) : 6 channels
Channel positions : Front: L C R, Side: L R, LFE
Sampling rate : 48.0 KHz
Bit depth : 16 bits
Compression mode : Lossy
Stream size : 490 MiB (11%)
Language : English
Default : No
Forced : No

Text
ID : 5
Format : UTF-8
Codec ID : S_TEXT/UTF8
Codec ID/Info : UTF-8 Plain Text
Language : English
Default : No
Forced : No
log:
[info]: frame I:2323 Avg QP:16,18 size: 86887 PSNR Mean Y:48,20 U:51,31 V:51,55 Avg:48,98 Global:48,42
[info]: frame P:59152 Avg QP:19,92 size: 28304 PSNR Mean Y:47,07 U:50,98 V:51,28 Avg:47,89 Global:46,13
[info]: frame B:195166 Avg QP:23,07 size: 9109 PSNR Mean Y:44,30 U:49,51 V:49,86 Avg:45,41 Global:44,89
[info]: consecutive B-frames: 2,3% 3,5% 7,3% 25,1% 17,5% 32,7% 5,2% 3,8% 1,3% 1,2%
[info]: mb I I16..4: 6,9% 81,4% 11,7%
[info]: mb P I16..4: 2,2% 12,8% 1,7% P16..4: 39,5% 22,3% 11,4% 0,0% 0,0% skip:10,1%
[info]: mb B I16..4: 0,1% 1,4% 0,3% B16..8: 40,9% 10,1% 2,3% direct: 5,3% skip:39,7% L0:43,3% L1:44,7% BI:12,0%
[info]: 8x8 transform intra:77,5% inter:74,3%
[info]: coded y,uvDC,uvAC intra: 79,9% 69,0% 31,3% inter: 25,4% 14,5% 0,8%
[info]: i16 v,h,dc,p: 56% 9% 6% 30%
[info]: i8 v,h,dc,ddl,ddr,vr,hd,vl,hu: 12% 7% 4% 9% 15% 14% 14% 12% 13%
[info]: i4 v,h,dc,ddl,ddr,vr,hd,vl,hu: 28% 5% 3% 7% 13% 12% 12% 9% 10%
[info]: i8c dc,h,v,p: 36% 26% 20% 17%
[info]: Weighted P-Frames: Y:5,6% UV:3,5%
[info]: ref P L0: 45,9% 12,5% 18,6% 6,3% 5,4% 3,6% 3,4% 1,9% 2,0% 0,4% 0,0%
[info]: ref B L0: 76,2% 11,3% 5,2% 2,7% 1,9% 1,5% 0,9% 0,3%
[info]: ref B L1: 93,8% 6,2%
[info]: SSIM Mean Y:0,9796681 (16,918db)
[info]: PSNR Mean Y:44,974 U:49,867 V:50,201 Avg:46,014 Global:45,168 kb/s:2730,79
Скріншоти
Володар перснів: Дві вежі / The Lord of the Rings: The Two Towers (2002) 720p 2xUkr/Eng | Sub Eng

Володар перснів: Дві вежі / The Lord of the Rings: The Two Towers (2002) 720p 2xUkr/Eng | Sub Eng

Володар перснів: Трилогія / The Lord of the Rings: Trilogy (2001-2003) 720p-mini 2xUkr/Eng | Sub Eng

Альтернативний постер:
Володар перснів: Трилогія / The Lord of the Rings: Trilogy (2001-2003) 720p-mini 2xUkr/Eng | Sub Eng




Актори: Елайджа Вуд, Шон Естін, Орландо Блум, Віґо Мортенсен, Єн Маккеллен, Домінік Монаґан, Міранда Отто, Джон Різ-Девіс, Енді Серкіс, Біллі Бойд, Г'юґо Вівінґ, Кейт Бланшет, Лів Тайлер, Крістофер Лі

Сюжет:
Продовження трилогії-екранізації найвідомішого твору Толкіна - доки Фродо та його супутники намагаються обійти численні пастки і кордони, прагнучи знищити Кільце Всевладдя в полум'ї гори, на якій його було створено, люди з форпосту Середзем'я - країни Рохан - готуються відбивати перші атаки армії Мордора, а в їхньому тилу тим часом відбувається зрада - один з верховних магів Саруман переходить на сторону ворога і починає створювати свою армію.


Тривалість: 02:59:25
Якість: 720p
Відео:
кодек:
розмір кадру: 1280 х 532
бітрейт: 2648 кб/с

Аудіо # 1:
мова: українська
переклад: багатоголосий закадровий
кодек: 2.0
бітрейт: 192 кб/с

Аудіо # 2:
мова: українська
переклад: багатоголосий закадровий | ТВ+
кодек: 2.0
бітрейт: 192 кб/с

Аудіо # 3:
мова: англійська
переклад: оригінал
кодек: 5.1
бітрейт: 384 кб/с

Субтитри:
мова: англійська
тип: програмні (м'які)
формат: *.srt
MediaInfo:
File size : 4.28 GiB
Duration : 2h 59mn
Overall bit rate : 3 417 Kbps
Encoded date : UTC 2013-05-21 22:15:50
Writing application : mkvmerge v6.1.0 ('Old Devil') built on Mar 28 2013 20:35:55
Writing library : libebml v1.3.0 + libmatroska v1.4.0

Video
ID : 1
Format : AVC
Format/Info : Advanced Video Codec
Format profile : [email protected]
Format settings, CABAC : Yes
Format settings, ReFrames : 9 frames
Codec ID : V_MPEG4/ISO/AVC
Duration : 2h 59mn
Bit rate : 2 648 Kbps
Width : 1 280 pixels
Height : 532 pixels
Display aspect ratio : 2.40:1
Frame rate mode : Constant
Frame rate : 23.976 fps
Color space : YUV
Chroma subsampling : 4:2:0
Bit depth : 8 bits
Scan type : Progressive
Bits/(Pixel*Frame) : 0.162
Stream size : 3.24 GiB (76%)
Title : For Hurtom by Zeus62
Writing library : core 112
Encoding settings : cabac=1 / ref=9 / deblock=1:-3:-3 / analyse=0x3:0x113 / me=umh / subme=10 / psy=1 / psy_rd=1,00:0,00 / mixed_ref=1 / me_range=64 / chroma_me=1 / trellis=2 / 8x8dct=1 / cqm=0 / deadzone=21,11 / fast_pskip=1 / chroma_qp_offset=-2 / threads=9 / sliced_threads=0 / nr=0 / decimate=1 / interlaced=0 / constrained_intra=0 / bframes=9 / b_pyramid=2 / b_adapt=2 / b_bias=0 / direct=1 / weightb=1 / open_gop=0 / weightp=2 / keyint=240 / keyint_min=23 / scenecut=40 / intra_refresh=0 / rc_lookahead=50 / rc=2pass / mbtree=1 / bitrate=2648 / ratetol=1,0 / qcomp=0,60 / qpmin=3 / qpmax=51 / qpstep=4 / cplxblur=20,0 / qblur=0,5 / ip_ratio=1,40 / aq=1:1,00
Language : English
Default : Yes
Forced : No
Color primaries : BT.709
Transfer characteristics : BT.709
Matrix coefficients : BT.709

Audio #1
ID : 2
Format : AC-3
Format/Info : Audio Coding 3
Mode extension : CM (complete main)
Format settings, Endianness : Big
Codec ID : A_AC3
Duration : 2h 59mn
Bit rate mode : Constant
Bit rate : 192 Kbps
Channel(s) : 2 channels
Channel positions : Front: L R
Sampling rate : 48.0 KHz
Bit depth : 16 bits
Compression mode : Lossy
Delay relative to video : 200ms
Stream size : 246 MiB (6%)
Title : 1+1
Language : Ukrainian
Default : Yes
Forced : No

Audio #2
ID : 3
Format : AC-3
Format/Info : Audio Coding 3
Mode extension : CM (complete main)
Format settings, Endianness : Big
Codec ID : A_AC3
Duration : 2h 59mn
Bit rate mode : Constant
Bit rate : 192 Kbps
Channel(s) : 2 channels
Channel positions : Front: L R
Sampling rate : 48.0 KHz
Bit depth : 16 bits
Compression mode : Lossy
Stream size : 246 MiB (6%)
Title : TV+
Language : Ukrainian
Default : No
Forced : No

Audio #3
ID : 4
Format : AC-3
Format/Info : Audio Coding 3
Mode extension : CM (complete main)
Format settings, Endianness : Big
Codec ID : A_AC3
Duration : 2h 59mn
Bit rate mode : Constant
Bit rate : 384 Kbps
Channel(s) : 6 channels
Channel positions : Front: L C R, Side: L R, LFE
Sampling rate : 48.0 KHz
Bit depth : 16 bits
Compression mode : Lossy
Stream size : 493 MiB (11%)
Language : English
Default : No
Forced : No

Text
ID : 5
Format : UTF-8
Codec ID : S_TEXT/UTF8
Codec ID/Info : UTF-8 Plain Text
Language : English
Default : No
Forced : No
log:
[info]: frame I:2017 Avg QP:18,13 size: 91878 PSNR Mean Y:46,11 U:49,86 V:50,57 Avg:47,04 Global:46,52
[info]: frame P:62561 Avg QP:22,18 size: 27757 PSNR Mean Y:44,29 U:49,67 V:49,97 Avg:45,34 Global:44,15
[info]: frame B:193518 Avg QP:25,79 size: 8478 PSNR Mean Y:42,38 U:48,84 V:49,24 Avg:43,62 Global:43,02
[info]: consecutive B-frames: 2,2% 4,6% 10,2% 26,9% 20,2% 29,1% 3,9% 1,7% 0,6% 0,6%
[info]: mb I I16..4: 7,9% 76,7% 15,4%
[info]: mb P I16..4: 1,9% 12,6% 2,2% P16..4: 38,8% 21,0% 11,9% 0,0% 0,0% skip:11,6%
[info]: mb B I16..4: 0,1% 1,4% 0,4% B16..8: 39,4% 9,1% 2,3% direct: 4,3% skip:42,9% L0:41,2% L1:46,9% BI:11,8%
[info]: 8x8 transform intra:75,2% inter:72,6%
[info]: coded y,uvDC,uvAC intra: 79,0% 61,9% 22,7% inter: 22,1% 10,9% 0,6%
[info]: i16 v,h,dc,p: 42% 12% 6% 40%
[info]: i8 v,h,dc,ddl,ddr,vr,hd,vl,hu: 12% 6% 3% 10% 15% 15% 14% 12% 12%
[info]: i4 v,h,dc,ddl,ddr,vr,hd,vl,hu: 26% 4% 3% 8% 14% 13% 12% 9% 10%
[info]: i8c dc,h,v,p: 35% 26% 21% 17%
[info]: Weighted P-Frames: Y:3,4% UV:2,0%
[info]: ref P L0: 47,5% 13,7% 17,6% 5,4% 5,0% 3,4% 3,2% 1,8% 2,0% 0,4% 0,0%
[info]: ref B L0: 80,6% 9,5% 4,0% 2,1% 1,5% 1,2% 0,8% 0,3%
[info]: ref B L1: 94,7% 5,3%
[info]: SSIM Mean Y:0,9745437 (15,942db)
[info]: PSNR Mean Y:42,877 U:49,047 V:49,428 Avg:44,065 Global:43,289 kb/s:2647,45
Скріншоти
Володар перснів: Повернення короля / The Lord of the Rings: The Return of the King (2003) 720p 2xUkr/Eng | Sub Eng

Володар перснів: Повернення короля / The Lord of the Rings: The Return of the King (2003) 720p 2xUkr/Eng | Sub Eng

Володар перснів: Трилогія / The Lord of the Rings: Trilogy (2001-2003) 720p-mini 2xUkr/Eng | Sub Eng

Альтернативний постер:
Володар перснів: Трилогія / The Lord of the Rings: Trilogy (2001-2003) 720p-mini 2xUkr/Eng | Sub Eng




Актори: Елайджа Вуд, Віґо Мортенсен, Шон Естін, Єн Маккеллен, Орландо Блум, Домінік Монаґан, Біллі Бойд, Енді Серкіс, Міранда Отто, Бернард Гілл, Г'юґо Вівінґ, Крістофер Лі, Кейт Бланшет, Лів Тайлер

Сюжет:
Заключна частина трилогії про війну за Середзем'я - Фродо, з охорони якого залишився лише найкращий друг Сем, з останніх сил намагається здолати неприступні гори Мордору, а люди, ельфи та гноми готуються обороняти ворота до своєї країни: фортецю Мінас-Тіріт, столицю королівства людей Гондора.


Тривалість: 03:21:02
Якість: 720p
Відео:
кодек:
розмір кадру: 1280 х 532
бітрейт: 2332 кб/с

Аудіо # 1:
мова: українська
переклад: багатоголосий закадровий
кодек: 2.0
бітрейт: 192 кб/с

Аудіо # 2:
мова: українська
переклад: багатоголосий закадровий
кодек: 5.1
бітрейт: 448 кб/с

Аудіо # 3:
мова: англійська
переклад: оригінал
кодек: 5.1
бітрейт: 384 кб/с

Субтитри:
мова: англійська
тип: програмні (м'які)
формат: *.srt
MediaInfo:
File size : 4.72 GiB
Duration : 3h 21mn
Overall bit rate : 3 358 Kbps
Encoded date : UTC 2013-05-21 22:25:03
Writing application : mkvmerge v6.1.0 ('Old Devil') built on Mar 28 2013 20:35:55
Writing library : libebml v1.3.0 + libmatroska v1.4.0

Video
ID : 1
Format : AVC
Format/Info : Advanced Video Codec
Format profile : [email protected]
Format settings, CABAC : Yes
Format settings, ReFrames : 9 frames
Codec ID : V_MPEG4/ISO/AVC
Duration : 3h 21mn
Bit rate : 2 332 Kbps
Width : 1 280 pixels
Height : 532 pixels
Display aspect ratio : 2.40:1
Frame rate mode : Constant
Frame rate : 23.976 fps
Color space : YUV
Chroma subsampling : 4:2:0
Bit depth : 8 bits
Scan type : Progressive
Bits/(Pixel*Frame) : 0.143
Stream size : 3.18 GiB (68%)
Title : For Hurtom by Zeus62
Writing library : core 112
Encoding settings : cabac=1 / ref=9 / deblock=1:-3:-3 / analyse=0x3:0x113 / me=umh / subme=10 / psy=1 / psy_rd=1,00:0,00 / mixed_ref=1 / me_range=64 / chroma_me=1 / trellis=2 / 8x8dct=1 / cqm=0 / deadzone=21,11 / fast_pskip=1 / chroma_qp_offset=-2 / threads=9 / sliced_threads=0 / nr=0 / decimate=1 / interlaced=0 / constrained_intra=0 / bframes=9 / b_pyramid=2 / b_adapt=2 / b_bias=0 / direct=1 / weightb=1 / open_gop=0 / weightp=2 / keyint=240 / keyint_min=23 / scenecut=40 / intra_refresh=0 / rc_lookahead=50 / rc=2pass / mbtree=1 / bitrate=2332 / ratetol=1,0 / qcomp=0,60 / qpmin=3 / qpmax=51 / qpstep=4 / cplxblur=20,0 / qblur=0,5 / ip_ratio=1,40 / aq=1:1,00
Language : English
Default : Yes
Forced : No
Color primaries : BT.709
Transfer characteristics : BT.709
Matrix coefficients : BT.709

Audio #1
ID : 2
Format : AC-3
Format/Info : Audio Coding 3
Mode extension : CM (complete main)
Format settings, Endianness : Big
Codec ID : A_AC3
Duration : 3h 21mn
Bit rate mode : Constant
Bit rate : 192 Kbps
Channel(s) : 2 channels
Channel positions : Front: L R
Sampling rate : 48.0 KHz
Bit depth : 16 bits
Compression mode : Lossy
Stream size : 276 MiB (6%)
Title : 1+1
Language : Ukrainian
Default : Yes
Forced : No

Audio #2
ID : 3
Format : AC-3
Format/Info : Audio Coding 3
Mode extension : CM (complete main)
Format settings, Endianness : Big
Codec ID : A_AC3
Duration : 3h 21mn
Bit rate mode : Constant
Bit rate : 448 Kbps
Channel(s) : 6 channels
Channel positions : Front: L C R, Side: L R, LFE
Sampling rate : 48.0 KHz
Bit depth : 16 bits
Compression mode : Lossy
Stream size : 644 MiB (13%)
Title : ICTV
Language : Ukrainian
Default : No
Forced : No

Audio #3
ID : 4
Format : AC-3
Format/Info : Audio Coding 3
Mode extension : CM (complete main)
Format settings, Endianness : Big
Codec ID : A_AC3
Duration : 3h 21mn
Bit rate mode : Constant
Bit rate : 384 Kbps
Channel(s) : 6 channels
Channel positions : Front: L C R, Side: L R, LFE
Sampling rate : 48.0 KHz
Bit depth : 16 bits
Compression mode : Lossy
Stream size : 552 MiB (11%)
Language : English
Default : No
Forced : No

Text
ID : 5
Format : UTF-8
Codec ID : S_TEXT/UTF8
Codec ID/Info : UTF-8 Plain Text
Language : English
Default : No
Forced : No
log:
[info]: frame I:2153 Avg QP:19,16 size: 84471 PSNR Mean Y:45,18 U:49,52 V:51,02 Avg:46,27 Global:45,85
[info]: frame P:70734 Avg QP:23,11 size: 24576 PSNR Mean Y:43,21 U:48,62 V:50,08 Avg:44,40 Global:43,49
[info]: frame B:216290 Avg QP:26,50 size: 7376 PSNR Mean Y:41,64 U:47,93 V:49,50 Avg:42,96 Global:42,48
[info]: consecutive B-frames: 2,3% 5,4% 8,3% 31,3% 14,5% 33,4% 2,4% 1,6% 0,4% 0,5%
[info]: mb I I16..4: 6,8% 78,7% 14,4%
[info]: mb P I16..4: 2,0% 12,3% 1,9% P16..4: 41,7% 20,3% 11,3% 0,0% 0,0% skip:10,5%
[info]: mb B I16..4: 0,1% 1,4% 0,3% B16..8: 42,0% 8,3% 1,9% direct: 4,2% skip:41,8% L0:43,1% L1:48,3% BI: 8,7%
[info]: 8x8 transform intra:76,5% inter:73,2%
[info]: coded y,uvDC,uvAC intra: 77,8% 52,9% 14,2% inter: 21,2% 10,3% 0,3%
[info]: i16 v,h,dc,p: 27% 13% 7% 53%
[info]: i8 v,h,dc,ddl,ddr,vr,hd,vl,hu: 11% 6% 3% 10% 16% 15% 15% 12% 12%
[info]: i4 v,h,dc,ddl,ddr,vr,hd,vl,hu: 23% 4% 3% 8% 15% 13% 13% 10% 11%
[info]: i8c dc,h,v,p: 36% 29% 19% 16%
[info]: Weighted P-Frames: Y:4,8% UV:3,1%
[info]: ref P L0: 47,5% 14,3% 16,5% 5,6% 4,9% 3,5% 3,3% 1,9% 2,0% 0,4% 0,0%
[info]: ref B L0: 80,2% 9,2% 4,2% 2,3% 1,6% 1,4% 0,8% 0,3%
[info]: ref B L1: 94,8% 5,2%
[info]: SSIM Mean Y:0,9667385 (14,781db)
[info]: PSNR Mean Y:42,053 U:48,114 V:49,651 Avg:43,338 Global:42,722 kb/s:2331,85
Скріншоти
Джерело: +
Подяка thefir, somnambula - за українізовані постери, karvai0 - за зведені українські доріжки з 1+1.
Особиста оцінка: 10 - без зайвих вагань рекомендую всім!


Срібний реліз (на рейтинг впливає 50% завантаженого)
 Трекер:    Зареєстрований   

Завантажити / скачати фільм українською



відео для новачків



 Зареєстрований:   2013-05-21 21:57
 Розмір:   13.36 GB 
 Оцінка фільму:   10/10 (Голосів: 107)
   
bohun 
VIP


З нами з: 21.03.09
Востаннє: 05.12.16
Повідомлень: 271

2013-05-22 20:13  
Я так розумію, зі спектром ніяких маніпуляцій не проводилось, тобто його не підчищували від шумів чи ще якось, а тільки вирізали рекламу і підпасували під відеоряд? Чи візьметься хтось накладати цей звук на оригінальну доріжку? У фільмі багато динамічних сцен, де по декілька хвилин відсутні діалоги, в цих місцях можна було б використати оригінальну доріжку, замість багатоголоски.

Додано через 5 хвилин 33 секунди:

Якщо не знайдеться бажаючих таке зробити, я можу взятись за це і зробити напр. 5.1 гарної якості, але це буде не раніше другої половини червня.

Додано через 2 хвилини 1 секунду:

Дуже вже люблю цю трилогію, особливо першу частину, особливо в озвучці "плюсів".

Zeus62 
Відео Гуртом - команда HD
Відео Гуртом - команда HD


З нами з: 29.12.08
Востаннє: 16.11.16
Повідомлень: 330

2013-05-22 20:41  
Цитата:
Я так розумію, зі спектром ніяких маніпуляцій не проводилось, тобто його не підчищували від шумів чи ще якось

Доріжки, як бачиш, робив не я, тому нічого з цього приводу сказати не можу. Починав робити, але потім з’явилось багато справ. Якщо маєш бажання, можеш зайнятись цим питанням.

Віктор 
Відео Гуртом - субтитрування
Відео Гуртом - субтитрування


З нами з: 09.01.10
Востаннє: 05.12.16
Повідомлень: 8663

2013-05-23 01:28  
bohun написано:
я можу взятись за це і зробити напр. 5.1 гарної якості, але це буде не раніше другої половини червня.

Було б чудово, якби ви взялись, єдиний момент, там потрібно замінити декілька слів. Бо в перекладі кілька помилок (в 1+1), наприклад у першій частині на початку, замість unkle (дядько) - переклали батько.

Zeus62 
Відео Гуртом - команда HD
Відео Гуртом - команда HD


З нами з: 29.12.08
Востаннє: 16.11.16
Повідомлень: 330

2013-05-23 22:40  
Цитата:
Було б чудово, якби ви взялись, єдиний момент, там потрібно замінити декілька слів. Бо в перекладі кілька помилок (в 1+1), наприклад у першій частині на початку, замість unkle (дядько) - переклали батько.

Тобто ти маєш на увазі, щоб вставити ці неправильно перекладені моменти з доріжки, записаної з ICTV?

Віктор 
Відео Гуртом - субтитрування
Відео Гуртом - субтитрування


З нами з: 09.01.10
Востаннє: 05.12.16
Повідомлень: 8663

2013-05-23 23:02  
Zeus62 написано:
Тобто ти маєш на увазі, щоб вставити ці неправильно перекладені моменти з доріжки, записаної з ICTV?


Взяти слово дядько з перекладу 1+1, яке там звучить не раз, і замінити слово батько.

ratbol 
Модератор HD


З нами з: 03.02.09
Востаннє: 01.12.16
Повідомлень: 1088

2013-05-25 09:19  
Zeus62 написано:
Володар перснів: Повернення короля / The Lord of the Rings: The Return of the King (2003) 720p 2xUkr/Eng | Sub Eng

720p-mini

oleg.plavkov 
Відео Гуртом - фільмокрай
Відео Гуртом - фільмокрай


З нами з: 04.01.12
Востаннє: 05.12.16
Повідомлень: 304

2013-05-25 15:19  
ratbol написано:
720p-mini

А хіба mini це не фільм під розмір 2,18 гб?

Virake 
Localize Team
Localize Team


З нами з: 07.07.09
Востаннє: 05.12.16
Повідомлень: 4059

2013-05-25 15:29  
mini це коли відео має Bits/(Pixel*Frame) менше 0.16, а тут це 0.167
oleg.plavkov 
Відео Гуртом - фільмокрай
Відео Гуртом - фільмокрай


З нами з: 04.01.12
Востаннє: 05.12.16
Повідомлень: 304

2013-05-25 15:56  
Залишмо як є.
braveboy 
Відео Гуртом - команда HD
Відео Гуртом - команда HD


З нами з: 15.06.10
Востаннє: 29.10.16
Повідомлень: 958

2013-05-25 15:59  
так тут дійсно mini бітрейт низький

Zeus62

виправ

ratbol 
Модератор HD


З нами з: 03.02.09
Востаннє: 01.12.16
Повідомлень: 1088

2013-05-25 16:22  
Virake написано:
mini це коли відео має Bits/(Pixel*Frame) менше 0.16, а тут це 0.167

У тій частині відео має 0.143.

Zeus62 
Відео Гуртом - команда HD
Відео Гуртом - команда HD


З нами з: 29.12.08
Востаннє: 16.11.16
Повідомлень: 330

2013-05-25 17:32  
Цитата:
виправ

Ну так що, ви визначились, міняти назву чи не міняти?

braveboy 
Відео Гуртом - команда HD
Відео Гуртом - команда HD


З нами з: 15.06.10
Востаннє: 29.10.16
Повідомлень: 958

2013-05-25 17:36  
Zeus62 написано:
Ну так що, ви визначились, міняти назву чи не міняти?

моя думка краще поміняти

oleg.plavkov 
Відео Гуртом - фільмокрай
Відео Гуртом - фільмокрай


З нами з: 04.01.12
Востаннє: 05.12.16
Повідомлень: 304

2013-05-25 17:40  
Моя - ні.
braveboy 
Відео Гуртом - команда HD
Відео Гуртом - команда HD


З нами з: 15.06.10
Востаннє: 29.10.16
Повідомлень: 958

2013-05-25 17:48  
oleg.plavkov написано:
Моя - ні.

oleg.plavkov тут бітрейт занижений якщо глянути на логи зразу побачиш, повноцінний 720р повинен мати більший бітрейт

Virake 
Localize Team
Localize Team


З нами з: 07.07.09
Востаннє: 05.12.16
Повідомлень: 4059

2013-05-25 19:33  
ratbol написано:
У тій частині відео має 0.143
ну тоді однозначно та частина mini. але якщо цікава моя особиста думка, то з них - всі 3 є mini. в нормальному HD бітрейт повинен бути хоча б 3000-4000.
Zeus62 
Відео Гуртом - команда HD
Відео Гуртом - команда HD


З нами з: 29.12.08
Востаннє: 16.11.16
Повідомлень: 330

2013-05-25 22:11  
Цитата:
ну тоді однозначно та частина mini. але якщо цікава моя особиста думка, то з них - всі 3 є mini. в нормальному HD бітрейт повинен бути хоча б 3000-4000.

Я зміню. Але що скажу - я не виставляю бітрейт вручну. Який скодувало, такий і буде. Ніяких експериментів не велось при кодуванні цієї трилогії. Чому такий низький - не знаю. Одне скажу - навіть блюрей цих трьох картин мене не вразив. Так що маємо те, що маємо.

Додано через 1 хвилину 4 секунди:

Назву змінено!

shot_max 
Новенький


З нами з: 09.10.12
Востаннє: 23.12.14
Повідомлень: 1

2013-08-21 09:23  
Станьте на роздачу, будь-ласка.
kino. 
Модератор відео


З нами з: 27.06.10
Востаннє: 05.12.16
Повідомлень: 2900

2013-08-21 11:18  
shot_max написано:
Станьте на роздачу, будь-ласка.

Ваш рейтинг опустився нижче 0,15. Коли він підніметься до цього рівня, ви знову зможете завантажувати торрент-файли. Почитайте ЦЕ

Drakoshka 
Localize Team
Localize Team


З нами з: 12.01.13
Востаннє: 03.12.16
Повідомлень: 66

2013-10-05 15:07  
Реліз на 5 з плюсом! Чудова якість, субтитри і при цьому відносно невеликий розмір - саме те, що потрібно!
Matthew15213 
Новенький


З нами з: 05.02.12
Востаннє: 05.12.16
Повідомлень: 7

2014-12-30 21:42  
Добрий день, шановні!

Мені важлива ваша думка: яке озувчення приємніше та якісніше, 1+1 чи TB+?
Це довгий фільм і я не хочу помилитися вибором. ;-)

Дякую вперед!

Ваш часовий пояс: GMT + 2 Години

Нова тема   Відповісти