Завантажити та скачати торренти українською


O.Torvald - Колекція (3 альбоми) (2008-2012) [FLAC] | Pop-Rock / Alternative

Нові коментарі

Нова тема   Відповісти
Автор Повідомлення
Anonymous 







2013-05-19 18:13  
O.Torvald - Колекція (3 альбоми) (2008-2012) [FLAC] | Pop-Rock / Alternative

O.Torvald - Колекція (3 альбоми) (2008-2012) [FLAC] | Pop-Rock / Alternative


Стиль: Pop-Rock, Alternative
Країна, місто: Україна, Полтава-Київ
Сайти: Офіційний сайт

Видавець: Moon Records ,Vesna Music , гурт
Виконавці:
Женя Галіч - гітара, бас-гітара, вокал
Ден Мизюк - гітара
Саша Солоха - барабани
DJ Polarniaue (Коля Райда) - програмування, клавішні
Альбоми:
2008 - O.Torvald (Vesna Music)

O.Torvald - Колекція (3 альбоми) (2008-2012) [FLAC] | Pop-Rock / Alternative

Пісні:
    1. Тіло (2:17)
    2. Телефон (3:00)
    3. Не залишай (4:05)
    4. Ані Лорак (3:34)
    5. Забити (3:29)
    6. Стій (2:54)
    7. Хочу FUCK (2:15)
    8. Київ-Лондон (2:44)
    9. Моє-твоє (3:34)
    10. Intro (Аtmospheric) (2:50)
    11. Мама (2:49)

Тривалість: 00:33:41
Мова: українська
Аудіо-кодек: FLAC
Бітрейт: 987 кб/с
Log

Exact Audio Copy V1.0 beta 2 from 29. April 2011

Отчёт EAC об извлечении, выполненном 14. сентября 2011, 19:25

O.Torvald / O.Torvald

Дисковод: HL-DT-STDVDRAM GSA-H12N Adapter: 0 ID: 0

Режим чтения : Достоверность
Использование точного потока : Да
Отключение кэша аудио : Да
Использование указателей C2 : Нет

Коррекция смещения при чтении : 667
Способность читать области Lead-in и Lead-out : Нет
Заполнение пропущенных сэмплов тишиной : Да
Удаление блоков с тишиной в начале и конце : Нет
При вычислениях CRC использовались нулевые сэмплы : Да
Интерфейс : Встроенный Win32-интерфейс для Win NT/2000
Обработка зазоров : Добавлено к предыдущему треку

Выходной формат : Пользовательский кодировщик
Выбранный битрейт : 64 kBit/s
Качество : Высокий
Добавление ID3-тега : Нет
Утилита сжатия : C:\Program Files\Exact Audio Copy\Flac\flac.exe
Дополнительные параметры : -V -8 -T "Genre=%genre%" -T "Artist=%artist%" -T "Title=%title%" -T "Album=%albumtitle%" -T "Date=%year%" -T "Tracknumber=%tracknr%" -T "Comment=%comment%" %source%

TOC извлечённого CD

Трек | Старт | Длительность | Начальный сектор | Конечный сектор
---------------------------------------------------------------------
1 | 0:00.00 | 2:17.15 | 0 | 10289
2 | 2:17.15 | 3:00.01 | 10290 | 23790
3 | 5:17.16 | 4:05.58 | 23791 | 42223
4 | 9:22.74 | 3:40.34 | 42224 | 58757
5 | 13:03.33 | 3:29.12 | 58758 | 74444
6 | 16:32.45 | 2:54.11 | 74445 | 87505
7 | 19:26.56 | 2:15.50 | 87506 | 97680
8 | 21:42.31 | 2:44.72 | 97681 | 110052
9 | 24:27.28 | 3:34.45 | 110053 | 126147
10 | 28:01.73 | 2:50.32 | 126148 | 138929
11 | 30:52.30 | 2:49.28 | 138930 | 151632

Трек 1

Имя файла E:\Мои документы\Моя музыка\O.Torvald\2008 - O. Torvald\01 Тіло.wav

Длина предзазора 0:00:02.00

Пиковый уровень 100.0 %
Скорость извлечения 4.0 X
Качество трека 100.0 %
CRC теста 6EB1E887
CRC копии 6EB1E887
Трек не обнаружен в базе AccurateRip
Копирование... OK

Трек 2

Имя файла E:\Мои документы\Моя музыка\O.Torvald\2008 - O. Torvald\02 Телефон.wav

Пиковый уровень 100.0 %
Скорость извлечения 4.5 X
Качество трека 100.0 %
CRC теста 95E01594
CRC копии 95E01594
Трек не обнаружен в базе AccurateRip
Копирование... OK

Трек 3

Имя файла E:\Мои документы\Моя музыка\O.Torvald\2008 - O. Torvald\03 Не залишай.wav

Пиковый уровень 100.0 %
Скорость извлечения 5.3 X
Качество трека 100.0 %
CRC теста 4BC14653
CRC копии 4BC14653
Трек не обнаружен в базе AccurateRip
Копирование... OK

Трек 4

Имя файла E:\Мои документы\Моя музыка\O.Torvald\2008 - O. Torvald\04 Ані Лорак.wav

Пиковый уровень 100.0 %
Скорость извлечения 4.8 X
Качество трека 99.9 %
CRC теста 3552BC38
CRC копии 3552BC38
Трек не обнаружен в базе AccurateRip
Копирование... OK

Трек 5

Имя файла E:\Мои документы\Моя музыка\O.Torvald\2008 - O. Torvald\05 Забити.wav

Пиковый уровень 100.0 %
Скорость извлечения 5.1 X
Качество трека 99.9 %
CRC теста ED0EBD1B
CRC копии ED0EBD1B
Трек не обнаружен в базе AccurateRip
Копирование... OK

Трек 6

Имя файла E:\Мои документы\Моя музыка\O.Torvald\2008 - O. Torvald\06 Стій.wav

Пиковый уровень 100.0 %
Скорость извлечения 5.8 X
Качество трека 100.0 %
CRC теста 08063E80
CRC копии 08063E80
Трек не обнаружен в базе AccurateRip
Копирование... OK

Трек 7

Имя файла E:\Мои документы\Моя музыка\O.Torvald\2008 - O. Torvald\07 Хочу fuck.wav

Пиковый уровень 100.0 %
Скорость извлечения 5.6 X
Качество трека 100.0 %
CRC теста 854F73A5
CRC копии 854F73A5
Трек не обнаружен в базе AccurateRip
Копирование... OK

Трек 8

Имя файла E:\Мои документы\Моя музыка\O.Torvald\2008 - O. Torvald\08 Київ-Лондон.wav

Пиковый уровень 100.0 %
Скорость извлечения 6.2 X
Качество трека 100.0 %
CRC теста 43551861
CRC копии 43551861
Трек не обнаружен в базе AccurateRip
Копирование... OK

Трек 9

Имя файла E:\Мои документы\Моя музыка\O.Torvald\2008 - O. Torvald\09 Моэ-Твоэ&.wav

Пиковый уровень 100.0 %
Скорость извлечения 6.9 X
Качество трека 100.0 %
CRC теста 1A5AEE50
CRC копии 1A5AEE50
Трек не обнаружен в базе AccurateRip
Копирование... OK

Трек 10

Имя файла E:\Мои документы\Моя музыка\O.Torvald\2008 - O. Torvald\10 Intro (Atmospheric).wav

Пиковый уровень 100.0 %
Скорость извлечения 7.0 X
Качество трека 100.0 %
CRC теста 4339FC08
CRC копии 4339FC08
Трек не обнаружен в базе AccurateRip
Копирование... OK

Трек 11

Имя файла E:\Мои документы\Моя музыка\O.Torvald\2008 - O. Torvald\11 Bonus track - Мама.wav

Пиковый уровень 100.0 %
Скорость извлечения 7.0 X
Качество трека 100.0 %
CRC теста AF6EA245
CRC копии AF6EA245
Трек не обнаружен в базе AccurateRip
Копирование... OK

Ни одного трека нет в базе AccurateRip

Ошибок не произошло

Конец отчёта

==== Контрольная сумма отчёта 43FFADBBCF7418D232C855787A8C22D205B724EF79B6CF0E27ED529D90A6FDB9 ====
2011 - В тобі (Moon Records )

O.Torvald - Колекція (3 альбоми) (2008-2012) [FLAC] | Pop-Rock / Alternative

Пісні:
    01. Фейдери догори
    02. Навпаки
    03. Не відпускай
    04. Качай
    05. Знову сам
    06. В тобі
    07. Радіомережі
    08. Зловживай
    09. Мій друг
    10 Нас двоє
    11. Сны и сигареты
    12. Не змогли

Тривалість: 00:42:10
Мова:: українська 1-10, 12, російська 11
Аудіо-кодек: FLAC
Бітрейт: 1081 кб/с
Log

Exact Audio Copy V1.0 beta 3 from 29. August 2011

EAC extraction logfile from 26. October 2011, 19:33

O.Torvald / В Тобі

Used drive : TOSHIBA DVD-ROM SD-R2512 Adapter: 1 ID: 0

Read mode : Secure
Utilize accurate stream : Yes
Defeat audio cache : Yes
Make use of C2 pointers : No

Read offset correction : 116
Overread into Lead-In and Lead-Out : No
Fill up missing offset samples with silence : Yes
Delete leading and trailing silent blocks : No
Null samples used in CRC calculations : Yes
Used interface : Native Win32 interface for Win NT & 2000
Gap handling : Appended to previous track

Used output format : User Defined Encoder
Selected bitrate : 1024 kBit/s
Quality : High
Add ID3 tag : No
Command line compressor : C:\Program Files\FLAC\flac.exe
Additional command line options : -V -8 -T "Genre=%genre%" -T "Artist=%artist%" -T "Title=%title%" -T "Album=%albumtitle%" -T "Date=%year%" -T "Tracknumber=%tracknr%" -T "Comment=%comment%" %source%

TOC of the extracted CD

Track | Start | Length | Start sector | End sector
---------------------------------------------------------
1 | 0:00.00 | 3:57.30 | 0 | 17804
2 | 3:57.30 | 3:12.62 | 17805 | 32266
3 | 7:10.17 | 3:42.71 | 32267 | 48987
4 | 10:53.13 | 3:00.52 | 48988 | 62539
5 | 13:53.65 | 3:08.47 | 62540 | 76686
6 | 17:02.37 | 3:45.01 | 76687 | 93562
7 | 20:47.38 | 3:15.73 | 93563 | 108260
8 | 24:03.36 | 2:24.62 | 108261 | 119122
9 | 26:28.23 | 3:45.08 | 119123 | 136005
10 | 30:13.31 | 3:59.07 | 136006 | 153937
11 | 34:12.38 | 4:08.46 | 153938 | 172583
12 | 38:21.09 | 3:55.69 | 172584 | 190277

Track 1

Filename E:\O.Torvald - В Тобі (2011)\01. Фейдери Догори.wav

Pre-gap length 0:00:02.00

Peak level 100.0 %
Extraction speed 2.0 X
Track quality 99.9 %
Test CRC 59BB76F6
Copy CRC 59BB76F6
Copy OK

Track 2

Filename E:\O.Torvald - В Тобі (2011)\02. Навпаки.wav

Peak level 100.0 %
Extraction speed 2.5 X
Track quality 100.0 %
Test CRC 8C8968AF
Copy CRC 8C8968AF
Copy OK

Track 3

Filename E:\O.Torvald - В Тобі (2011)\03. Не Відпускай.wav

Peak level 100.0 %
Extraction speed 2.7 X
Track quality 100.0 %
Test CRC 6D87C0DD
Copy CRC 6D87C0DD
Copy OK

Track 4

Filename E:\O.Torvald - В Тобі (2011)\04. Качай.wav

Peak level 100.0 %
Extraction speed 2.7 X
Track quality 100.0 %
Test CRC 1D8643BF
Copy CRC 1D8643BF
Copy OK

Track 5

Filename E:\O.Torvald - В Тобі (2011)\05. Знову Сам.wav

Peak level 100.0 %
Extraction speed 3.0 X
Track quality 100.0 %
Test CRC BDED7586
Copy CRC BDED7586
Copy OK

Track 6

Filename E:\O.Torvald - В Тобі (2011)\06. В Тобі.wav

Peak level 100.0 %
Extraction speed 3.2 X
Track quality 100.0 %
Test CRC 4D875186
Copy CRC 4D875186
Copy OK

Track 7

Filename E:\O.Torvald - В Тобі (2011)\07. Радіомережі.wav

Peak level 100.0 %
Extraction speed 3.2 X
Track quality 100.0 %
Test CRC 35CA76A4
Copy CRC 35CA76A4
Copy OK

Track 8

Filename E:\O.Torvald - В Тобі (2011)\08. Зловживай.wav

Peak level 100.0 %
Extraction speed 3.0 X
Track quality 100.0 %
Test CRC 203D131B
Copy CRC 203D131B
Copy OK

Track 9

Filename E:\O.Torvald - В Тобі (2011)\09. Мій Друг.wav

Peak level 100.0 %
Extraction speed 2.8 X
Track quality 99.9 %
Test CRC D6A3366E
Copy CRC D6A3366E
Copy OK

Track 10

Filename E:\O.Torvald - В Тобі (2011)\10. Нас Двоє.wav

Peak level 100.0 %
Extraction speed 3.3 X
Track quality 100.0 %
Test CRC 03A62E2A
Copy CRC 03A62E2A
Copy OK

Track 11

Filename E:\O.Torvald - В Тобі (2011)\11. Сны И Сигареты.wav

Peak level 100.0 %
Extraction speed 3.3 X
Track quality 100.0 %
Test CRC 980E592B
Copy CRC 980E592B
Copy OK

Track 12

Filename E:\O.Torvald - В Тобі (2011)\12. Не Змогли.wav

Peak level 100.0 %
Extraction speed 3.2 X
Track quality 100.0 %
Test CRC ED62382C
Copy CRC ED62382C
Copy OK

No errors occurred

End of status report
2012 - Акустичний (Гурт)

O.Torvald - Колекція (3 альбоми) (2008-2012) [FLAC] | Pop-Rock / Alternative

Пісні:
    1. Почутття
    2. I love you
    3. Без тебе
    4. Старість (В її очах)
    5. Зловживай
    6. Не відпускай
    7. До п'ятниці
    8. Світ телефонних дротів
    9. Не змогли
    10. В тобі (instrumental)

Тривалість: 00:28:56
Мова: українська
Аудіо-кодек: FLAC
Бітрейт: 1024 кб/с
Log

Exact Audio Copy V1.0 beta 3 from 29. August 2011

EAC extraction logfile from 15. May 2013, 11:19

O.Torvald / Акустичний

Used drive : Optiarc DVD RW AD-7585H Adapter: 1 ID: 0

Read mode : Secure
Utilize accurate stream : Yes
Defeat audio cache : Yes
Make use of C2 pointers : No

Read offset correction : 6
Overread into Lead-In and Lead-Out : No
Fill up missing offset samples with silence : Yes
Delete leading and trailing silent blocks : No
Null samples used in CRC calculations : Yes
Used interface : Native Win32 interface for Win NT & 2000
Gap handling : Appended to previous track

Used output format : User Defined Encoder
Selected bitrate : 64 kBit/s
Quality : High
Add ID3 tag : No
Command line compressor : C:\Program Files (x86)\Exact Audio Copy\Flac\flac.exe
Additional command line options : -V -8 -T "Artist=%artist%" -T "Title=%title%" -T "Album=%albumtitle%" -T "Date=%year%" -T "Tracknumber=%tracknr1%" -T "Totaltracks=%numtracks%" %source%

TOC of the extracted CD

Track | Start | Length | Start sector | End sector
---------------------------------------------------------
1 | 0:00.00 | 3:19.60 | 0 | 14984
2 | 3:19.60 | 2:42.12 | 14985 | 27146
3 | 6:01.72 | 3:32.43 | 27147 | 43089
4 | 9:34.40 | 2:50.37 | 43090 | 55876
5 | 12:25.02 | 2:09.49 | 55877 | 65600
6 | 14:34.51 | 3:47.61 | 65601 | 82686
7 | 18:22.37 | 2:41.52 | 82687 | 94813
8 | 21:04.14 | 2:38.01 | 94814 | 106664
9 | 23:42.15 | 3:04.26 | 106665 | 120490
10 | 26:46.41 | 2:27.15 | 120491 | 131530

Track 1

Filename D:\O.Torvald - 2012 - Акустичний\01. Почуття.wav

Pre-gap length 0:00:02.00

Peak level 100.0 %
Extraction speed 2.5 X
Track quality 100.0 %
Test CRC ABC1E28B
Copy CRC ABC1E28B
Track not present in AccurateRip database
Copy OK

Track 2

Filename D:\O.Torvald - 2012 - Акустичний\02. I Love You.wav

Pre-gap length 0:00:02.00

Peak level 100.0 %
Extraction speed 2.7 X
Track quality 100.0 %
Test CRC 8C107921
Copy CRC 8C107921
Track not present in AccurateRip database
Copy OK

Track 3

Filename D:\O.Torvald - 2012 - Акустичний\03. Без тебе.wav

Pre-gap length 0:00:02.00

Peak level 100.0 %
Extraction speed 3.0 X
Track quality 100.0 %
Test CRC 072B1850
Copy CRC 072B1850
Track not present in AccurateRip database
Copy OK

Track 4

Filename D:\O.Torvald - 2012 - Акустичний\04. Старість (В її очах).wav

Pre-gap length 0:00:02.00

Peak level 100.0 %
Extraction speed 3.1 X
Track quality 100.0 %
Test CRC 24B8208D
Copy CRC 24B8208D
Track not present in AccurateRip database
Copy OK

Track 5

Filename D:\O.Torvald - 2012 - Акустичний\05. Зловживай.wav

Pre-gap length 0:00:02.00

Peak level 99.4 %
Extraction speed 3.0 X
Track quality 100.0 %
Test CRC FBA1DA7B
Copy CRC FBA1DA7B
Track not present in AccurateRip database
Copy OK

Track 6

Filename D:\O.Torvald - 2012 - Акустичний\06. Не відпускай.wav

Pre-gap length 0:00:02.00

Peak level 100.0 %
Extraction speed 3.5 X
Track quality 100.0 %
Test CRC E5A61865
Copy CRC E5A61865
Track not present in AccurateRip database
Copy OK

Track 7

Filename D:\O.Torvald - 2012 - Акустичний\07. До п'ятниці.wav

Pre-gap length 0:00:02.00

Peak level 100.0 %
Extraction speed 2.8 X
Track quality 99.9 %
Test CRC 49531D3B
Copy CRC 49531D3B
Track not present in AccurateRip database
Copy OK

Track 8

Filename D:\O.Torvald - 2012 - Акустичний\08. Світ телефонних дротів.wav

Pre-gap length 0:00:02.00

Peak level 100.0 %
Extraction speed 2.8 X
Track quality 99.9 %
Test CRC E67AD3D1
Copy CRC E67AD3D1
Track not present in AccurateRip database
Copy OK

Track 9

Filename D:\O.Torvald - 2012 - Акустичний\09. Не змогли.wav

Pre-gap length 0:00:02.00

Peak level 97.9 %
Extraction speed 3.9 X
Track quality 100.0 %
Test CRC 1AAFA546
Copy CRC 1AAFA546
Track not present in AccurateRip database
Copy OK

Track 10

Filename D:\O.Torvald - 2012 - Акустичний\10. В тобі (instrumental).wav

Pre-gap length 0:00:02.00

Peak level 91.0 %
Extraction speed 3.8 X
Track quality 100.0 %
Test CRC 964B7D17
Copy CRC 964B7D17
Track not present in AccurateRip database
Copy OK

None of the tracks are present in the AccurateRip database

No errors occurred

End of status report

==== Log checksum 34766D4227864DE510319F1A5C558ADC95BD853FFB0317052AEF29E06C75092E ====
Загальна тривалість: 01:45:12
Мова: українська , російська (1 трек)
Аудіо-кодек: FLAC
Бітрейт: 987-1081 кб/с
Джерело: Гуртом
Додаткова інформація:
О.Torvald (Оторвальд) - рок-гурт, складається з п'яти учасників. Створений в 2005 році в Полтаві. Вже в 2006-му музиканти переїхали до Києва. У 2008 році вийшов дебютний альбом «O.Torvald», друга платівка вийшла в 2011-му, вона отримала назву «В Тобі». Зараз О.Torvald працюють у студії над третім альбомом.


Якщо Ви справді бажаєте підтримати українське - після прослуховування, якщо музика вам сподобалась, придбайте ліцензійний диск. Підтримаймо вітчизняних виконавців!


Золотий реліз (завантажене не впливає на рейтинг)
 Трекер:    Зареєстрований   

Завантажити / скачати українську музику



відео для новачків



 Зареєстрований:   2013-05-19 18:17
 Розмір:   1002 MB 
 Оцінка музики:   9.9/10 (Голосів: 13)
   
Klisan 
Новенький


З нами з: 22.11.09
Востаннє: 27.11.16
Повідомлень: 14

2015-06-30 23:18  
Аудіо-кодек: MP3 ???
ssTAss 
Модератор музики


З нами з: 05.07.08
Востаннє: 03.12.16
Повідомлень: 10930

2015-07-01 00:08  
Klisan
дякую за уважність
звісно FLAC. просто релізер помилився)

Dimaxa 
Новенький


З нами з: 10.11.11
Востаннє: 04.11.16
Повідомлень: 5

2015-12-20 00:42  
Панове, ніхто немає в колекції альбому "Примат" 2012 року в .flac ?
Ніде не можу його знайти навіть щоб купити.

vamp69 
Поважний учасник


З нами з: 06.07.09
Востаннє: 30.11.16
Повідомлень: 173

2015-12-24 09:14  
Dimaxa у мене є, можу закинути (спочатку ріпну)
Dimaxa 
Новенький


З нами з: 10.11.11
Востаннє: 04.11.16
Повідомлень: 5

2016-01-03 01:23  
Та невже! Закидайте, думаю не лише я буду вдячний!
Ваш часовий пояс: GMT + 2 Години

Нова тема   Відповісти