Завантажити та скачати торренти українською


Космополіс / Cosmopolis (2012) 1080p Ukr/Eng | Sub Ukr/Eng

Нові коментарі

Нова тема   Відповісти
Автор Повідомлення
Anonymous 







2013-05-18 17:24  
Космополіс / Cosmopolis (2012) 1080p Ukr/Eng | Sub Ukr/Eng

Космополіс / Cosmopolis (2012) 1080p Ukr/Eng | Sub Ukr/Eng


Жанр: драма, трилер
Країна: Канада, Франція, Португалія, Італія



Кінокомпанія: Alfama Films, Prospero Pictures, Kinology
Режисер: Девід Кроненберґ / David Cronenberg
Актори: Роберт Паттінсон / Robert Pattinson, Сара Ґадон / Sarah Gadon, Пол Джаматті / Paul Giamatti, Кевін Дюран / Kevin Durand, Абдул Айула / Abdul Ayoola, Жюльєт Бінош / Juliette Binoche, Емілі Гемпшир / Emily Hampshire, Боб Бейнборо / Bob Bainborough, Саманта Мортон / Samantha Morton, Желько Кесойевіч / Zeljko Kecojevic та інші.

Сюжет:
24 години з життя 28-річного мільярдера-фінансиста Еріка Пекера, який зраджує своїй молодій дружині, піддається нападу і водночас втрачає весь свій статок. Дія стрічки розгортатиметься на Манхеттені протягом однієї доби.


рейтинг MPAA: R - особам до 17 років обов'язкова присутність батьків або дорослого опікуна
Вікова категорія: 16+

Тривалість: 01:48:51
Якість: 1080p
Відео:
кодек:
розмір кадру: 1920x1040
бітрейт: 9690 кб/с

Аудіо # 1:
мова: українська
переклад: багатоголосий закадровий
кодек: 2.0
бітрейт: 192 кб/с

Аудіо # 2:
мова: англійська
переклад: оригінал
кодек: 5.1
бітрейт: 384 кб/с

Субтитри:
мова: українська
тип: програмні (м'які)
формат: *.srt

Субтитри:
мова: англійська
тип: програмні (м'які)
формат: *.srt

Збережено оригінальні розділи, як на Blu-ray.
MediaInfo та
Код:
[info]: frame I:1062 Avg QP:17.69 size:189428
  [info]: frame P:29576 Avg QP:19.53 size: 80894
  [info]: frame B:126107 Avg QP:21.86 size: 42064
  [info]: consecutive B-frames: 1.1% 0.9% 4.4% 10.2% 15.9% 52.1% 11.2% 3.0% 0.5% 0.7%


Код:
Complete name                            : Cosmopolis.2012..1080p.Ukr.Eng.mkv
Format                                   : Matroska
Format version                           : Version 4 / Version 2
File size                                : 7.80 GiB
Duration                                 : 1h 48mn
Overall bit rate                         : 10.3 Mbps
Movie name                               : Космополіс / Cosmopolis / Космополис (2012)
Encoded date                             : UTC 2013-05-18 13:26:43
Writing application                      : mkvmerge v6.2.0 ('Promised Land') built on Apr 28 2013 12:22:01
Writing library                          : libebml v1.3.0 + libmatroska v1.4.0

Video
ID                                       : 1
Format                                   : AVC
Format/Info                              : Advanced Video Codec
Format profile                           : [email protected]
Format settings, CABAC                   : Yes
Format settings, ReFrames                : 4 frames
Codec ID                                 : V_MPEG4/ISO/AVC
Duration                                 : 1h 48mn
Bit rate                                 : 9 690 Kbps
Width                                    : 1 920 pixels
Height                                   : 1 040 pixels
Display aspect ratio                     : 1.85:1
Frame rate mode                          : Constant
Frame rate                               : 24.000 fps
Color space                              : YUV
Chroma subsampling                       : 4:2:0
Bit depth                                : 8 bits
Scan type                                : Progressive
Bits/(Pixel*Frame)                       : 0.202
Stream size                              : 7.20 GiB (92%)
Title                                    : Космополіс / Cosmopolis / Космополис (2012) [FREEISLAND-delia]
Writing library                          : core 128 r2216 198a7ea
Encoding settings                        : cabac=1 / ref=4 / deblock=1:-3:-3 / analyse=0x3:0x113 / me=umh / subme=10 / psy=1 / psy_rd=0.95:0.05 / mixed_ref=1 / me_range=32 / chroma_me=1 / trellis=2 / 8x8dct=1 / cqm=0 / deadzone=21,11 / fast_pskip=0 / chroma_qp_offset=1 / threads=6 / lookahead_threads=1 / sliced_threads=0 / nr=0 / decimate=1 / interlaced=0 / bluray_compat=0 / constrained_intra=0 / bframes=9 / b_pyramid=2 / b_adapt=2 / b_bias=0 / direct=3 / weightb=1 / open_gop=0 / weightp=2 / keyint=240 / keyint_min=24 / scenecut=40 / intra_refresh=0 / rc=2pass / mbtree=0 / bitrate=9690 / ratetol=1.0 / qcomp=0.70 / qpmin=0 / qpmax=69 / qpstep=4 / cplxblur=20.0 / qblur=0.5 / ip_ratio=1.25 / pb_ratio=1.25 / aq=2:0.80
Language                                 : English
Default                                  : Yes
Forced                                   : No
Color primaries                          : BT.709
Transfer characteristics                 : BT.709
Matrix coefficients                      : BT.709

Audio #1
ID                                       : 2
Format                                   : AC-3
Format/Info                              : Audio Coding 3
Mode extension                           : CM (complete main)
Format settings, Endianness              : Big
Codec ID                                 : A_AC3
Duration                                 : 1h 48mn
Bit rate mode                            : Constant
Bit rate                                 : 192 Kbps
Channel(s)                               : 2 channels
Channel positions                        : Front: L R
Sampling rate                            : 48.0 KHz
Bit depth                                : 16 bits
Compression mode                         : Lossy
Stream size                              : 149 MiB (2%)
Title                                    : MVO [Ukraina] 2.0 192 Kbps [Hurtom-_oles, MAKAPOHHIK]
Language                                 : Ukrainian
Default                                  : Yes
Forced                                   : No

Audio #2
ID                                       : 3
Format                                   : AC-3
Format/Info                              : Audio Coding 3
Mode extension                           : CM (complete main)
Format settings, Endianness              : Big
Codec ID                                 : A_AC3
Duration                                 : 1h 48mn
Bit rate mode                            : Constant
Bit rate                                 : 384 Kbps
Channel(s)                               : 6 channels
Channel positions                        : Front: L C R, Side: L R, LFE
Sampling rate                            : 48.0 KHz
Bit depth                                : 16 bits
Compression mode                         : Lossy
Stream size                              : 299 MiB (4%)
Title                                    : Original
Language                                 : English
Default                                  : No
Forced                                   : No

Text #1
ID                                       : 4
Format                                   : UTF-8
Codec ID                                 : S_TEXT/UTF8
Codec ID/Info                            : UTF-8 Plain Text
Title                                    : Ukr full
Language                                 : Ukrainian
Default                                  : No
Forced                                   : No

Text #2
ID                                       : 5
Format                                   : UTF-8
Codec ID                                 : S_TEXT/UTF8
Codec ID/Info                            : UTF-8 Plain Text
Title                                    : Eng full
Language                                 : English
Default                                  : No
Forced                                   : No

Menu
00:00:00.000                             : en:Chapter 1
00:05:55.916                             : en:Chapter 2
00:13:24.166                             : en:Chapter 3
00:20:59.000                             : en:Chapter 4
00:29:11.500                             : en:Chapter 5
00:35:52.375                             : en:Chapter 6
00:44:52.541                             : en:Chapter 7
00:49:30.083                             : en:Chapter 8
00:56:28.750                             : en:Chapter 9
01:01:14.041                             : en:Chapter 10
01:07:30.291                             : en:Chapter 11
01:17:24.458                             : en:Chapter 12


Джерела та подяки: ріп відео, оригінальний звук - delia (Freeisland); українська доріжка - _oles (зведення), MAKAPOHHIK (запис з ТБ); українські субтитри - DVD R5, відредагував Олексій Мезенцев, я поправив таймінги (взяв від оригінальних сабів через розходження на -1 +3 сек.) (всі - Гуртом).

ЗАЛИШАЙТЕСЬ ЯКОМОГА ДОВШЕ НА РОЗДАЧІ, НЕ ОБМЕЖУЙТЕ ШВИДКІСТЬ ВІДДАЧІ!

СКАЧАВ САМ - ДАЙ СКАЧАТИ ІНШИМ


 Трекер:    Зареєстрований   

Завантажити / скачати фільм українською



відео для новачків



 Зареєстрований:   2013-05-18 17:24
 Розмір:   7.8 GB 
 Оцінка фільму:   3.9/10 (Голосів: 22)
   
Інші релізи
   Космополіс / Cosmopolis (2012) Ukr/Eng | Sub Ukr/Eng AngryBirdsUA  2 / 0   2.04 GB   2013-05-17 13:09 
Andriy063 
Відео Гуртом - підтримка та поширення
Відео Гуртом - підтримка та поширення


З нами з: 26.09.10
Востаннє: 07.12.16
Повідомлень: 371

2013-05-19 13:41  
Це ж один із тих фільмів, що були з російською озвучкою? Вдячний релізеру та каналу Україна.
Fedik 
Свій


З нами з: 04.06.08
Востаннє: 04.12.16
Повідомлень: 109

2013-05-19 22:46  
як на мене, то там нема, що дивитись ... діалоги затянуті ...
мене вистачило на 30хв ...

don pedro 
Попереджень: 1
Попереджень: 1 


З нами з: 29.06.11
Востаннє: 10.12.16
Повідомлень: 8774

2013-05-20 13:52  
10/10.
vasya 
Новенький


З нами з: 28.08.08
Востаннє: 05.05.14
Повідомлень: 9

2013-05-23 20:59  
"...зраджує свою молоду дружину..."(зраджує кого,а не кому).
waldi-hurtom 
VIP


З нами з: 07.10.12
Востаннє: 09.12.16
Повідомлень: 613

2014-08-09 11:37  
Повний відстій! Вікова категорія до 6 років. Давно не траплялось такого лайна, перепрошую. 1 з 10.
ProgBassing 
Відео Гуртом - фільмокрай
Відео Гуртом - фільмокрай


З нами з: 08.03.08
Востаннє: 09.12.16
Повідомлень: 608

2014-08-09 11:49  
Однозначно, фільм порожній і до смішного тупий - лімузини-офіси... дуже зручно! Wink (1)
Valstazi 
Новенький


З нами з: 27.01.15
Востаннє: 03.12.16
Повідомлень: 1

2016-07-07 18:30  
один з кращіх фільмів 21го сторіччя
Ваш часовий пояс: GMT + 2 Години

Нова тема   Відповісти