Завантажити та скачати торренти українською


Чиста Криниця - Симфонія Життя (2011) [FLAC] | Pagan / Folk Black Metal

Нові коментарі

Нова тема   Відповісти
Автор Повідомлення
iwan wan 
VIP


З нами з: 01.10.09
Востаннє: 10.12.16
Повідомлень: 1762

2013-05-18 14:57  
Чиста Криниця - Симфонія Життя (2011) [FLAC] | Pagan/Folk Black Metal



Стиль: Pagan, Folk Black Metal
Країна, місто: Україна, Харків
Сайти: Офіційний сайт
Видавець: More Hate Productions
Виконавці:
Руслан Криниця - вокал, барабани
Володимир Галайда - гітара
Тим Хресвельг - клавішні
Ксенія Демоніка - бас
Пісні:
    1. Симфонія Життя (2:38)
    2. Океан Снігів У Нордичному Серці (3:12)
    3. Виноградня Культури (6:43)
    4. Порожній Човен (4:31)
    5. Сегодня Боги Танцуют Вместе С Нами (4:29)
    6. Хранители (6:41)
    7. Цимбали Б'ють (4:45)
    8. Ми Не Одні (5:06)
    9. Весільний Сад (3:24)
    10. Мистецтво Смерті (4:28)
    11. Хай Світ Почує Моє Мовчання (3:56)
    12. Зимовий Бал-Маскарад (9:19)
    13. Колесо Сансари (3:12)
    14. Океан Мудрості (1:52)

Тривалість: 01:04:16
Мова: українська 1-4, 7-14, російська 5,6
Аудіо-кодек: FLAC
Бітрейт: 998 кб/с
Джерело: Інтернет
Додаткова інформація:
"ЧИСТА КРИНИЦЯ" салютує усім Борцям за Свободу. Цим альбомом Ми ще раз хочемо довести, що працюємо у напрямку відродження культури Білої Людини. Незважаючи на відмову лейблів випускати "праворадикальну музику" і незважаючи на відсутність бажання співпраці у інших NS-гуртів, у Нашій боротьбі настає той час, коли Ми починаємо ставати на новий рівень, більш вищий. Своєю працею Ми хочемо подякувати усім тим, хто Нас знає і поважає, усім тим, хто в Нас вірить і не забуває. Коли ваше серце б'ється десь поруч, Ми відчуваємо, що Ви робите свій вклад у Наше майбутнє. Не забувайте про це. І саме тому, "ЧИСТА КРИНИЦЯ" на своїх концертах представляє кожного з Вас, кожного з тих, хто Вірить і Знає... А кому начхати на Нас - та не пішли б вони всі...
Log

Exact Audio Copy V1.0 beta 2 from 29. April 2011

EAC extraction logfile from 28. May 2011, 23:02

Чиста Криниця / Симфонія Життя

Used drive : ASUS DRW-24B3ST Adapter: 3 ID: 1

Read mode : Secure
Utilize accurate stream : Yes
Defeat audio cache : Yes
Make use of C2 pointers : No

Read offset correction : 6
Overread into Lead-In and Lead-Out : No
Fill up missing offset samples with silence : Yes
Delete leading and trailing silent blocks : No
Null samples used in CRC calculations : Yes
Used interface : Native Win32 interface for Win NT & 2000

Used output format : User Defined Encoder
Selected bitrate : 128 kBit/s
Quality : High
Add ID3 tag : No
Command line compressor : C:\Program Files (x86)\Exact Audio Copy\Flac\flac.exe
Additional command line options : -8 -V %source%

TOC of the extracted CD

Track | Start | Length | Start sector | End sector
---------------------------------------------------------
1 | 0:00.00 | 2:40.47 | 0 | 12046
2 | 2:40.47 | 3:14.60 | 12047 | 26656
3 | 5:55.32 | 6:45.67 | 26657 | 57098
4 | 12:41.24 | 4:33.17 | 57099 | 77590
5 | 17:14.41 | 4:31.35 | 77591 | 97950
6 | 21:46.01 | 6:43.74 | 97951 | 128249
7 | 28:30.00 | 4:47.15 | 128250 | 149789
8 | 33:17.15 | 5:08.12 | 149790 | 172901
9 | 38:25.27 | 3:26.31 | 172902 | 188382
10 | 41:51.58 | 4:30.52 | 188383 | 208684
11 | 46:22.35 | 3:58.71 | 208685 | 226605
12 | 50:21.31 | 9:21.28 | 226606 | 268708
13 | 59:42.59 | 3:14.61 | 268709 | 283319
14 | 62:57.45 | 1:52.60 | 283320 | 291779

Range status and errors

Selected range

Filename C:\Users\vvb05\Desktop\Аудио\Чиста Криниця - Симфонія Життя.wav

Peak level 100.0 %
Extraction speed 5.9 X
Range quality 99.9 %
Test CRC 1B3CA218
Copy CRC 1B3CA218
Copy OK

No errors occurred

AccurateRip summary

Track 1 not present in database
Track 2 not present in database
Track 3 not present in database
Track 4 not present in database
Track 5 not present in database
Track 6 not present in database
Track 7 not present in database
Track 8 not present in database
Track 9 not present in database
Track 10 not present in database
Track 11 not present in database
Track 12 not present in database
Track 13 not present in database
Track 14 not present in database

None of the tracks are present in the AccurateRip database

End of status report

==== Log checksum 2885ED01CA1FBD9747B836FA8C914F2190F2AE0A2A23EF7DC7713BCF067870DB ====
Якщо Ви справді бажаєте підтримати українське - після прослуховування, якщо музика вам сподобалась, придбайте ліцензійний диск. Підтримаймо вітчизняних виконавців!


Срібний реліз (на рейтинг впливає 50% завантаженого)
 Трекер:    Зареєстрований   

Завантажити / скачати українську музику



відео для новачків



 Зареєстрований:   2013-05-18 14:57
 Розмір:   501 MB 
 Оцінка музики:   10/10 (Голосів: 3)
   
Ваш часовий пояс: GMT + 2 Години

Нова тема   Відповісти