Завантажити та скачати торренти українською


da Freak's Show - [R]evolution як постріл у спину (2010) [FLAC] | Nu-Metal / Rap-Core

Нові коментарі

Нова тема   Відповісти
Останній раз роздавалося Myfordownloads (2016-10-05)
Автор Повідомлення
iwan wan 
VIP


З нами з: 01.10.09
Востаннє: 10.12.16
Повідомлень: 1762

2013-05-18 14:46  
da Freak's Show - [R]evolution як постріл у спину (2010) [FLAC] | Nu-Metal / Rap-Core



Стиль: Nu-Metal, Rap-Core
Країна, місто: Україна, Дніпропетровськ
Видавець: Гурт
Виконавці:
Олег «moloko» Шаповал - Вокал
Кирил «disOrDeR» Одринський - Бас гітара
Олексій «fuzza» Файзуллою - Гітара
Женя «Чорний»- Барабани
Олег «Zam»Єременко - Гітара
Пісні:
    01. Revolution (intro)
    02. Постріл
    03. Крок за кроком
    04. Поле бою
    05. Анти - емо
    06. Жуйка (satisfaction version)
    07. Собак@
    08. Молодь золота
    09. Трек №9 (Соплі)

УВАГА! ПРИСУТНЯ НЕНОРМАТИВНА ЛЕКСИКА

Тривалість: 00:34:42
Мова: українська
Аудіо-кодек: FLAC
Бітрейт: 1073 кб/с
Джерело: Інший трекер
Додаткова інформація:
Група була зібрана як солянка з музикантів, раніше грали в декількох колективах різної музичної спрямованості.
Офіційною датою народження являється 06.01.2007 - саме тоді два музиканта (Бармалей і Fatera, які вже й не грають в групі) організували першу репетицію. Далі почався пошук знайомих і знайомих знайомих =).
Не менш знаменною подією являється прихід ** помилково ** на репетицію Олега Шаповала (moloko), який згодом став незмінним вокалістом і фронтменом групи. Саме ці люди з барабанщиком Вадимом Готт (Шміт) склали кістяк групи - пішла ЖАРА)))
На музику Фрікшоу дуже вплинули 2 особи: гітараст Зам (перші пісні групи - його заслуга), і бас гітараст з процесором Кирило Одринський!
Зараз на гітарах навалюють блюзмен Льоша і джазист з музичною освітою за контрабасу Віталік, який у недавній час покинув групу у зв'язку з розбіжністю музичних смаків.
ALARM! Основною та незмінною фішечки da Freaks Show являються найсильніші живі виступи команди, що супроводжуються шаленим потоком енергії, що йде зі сцени.
У 2010 році на студії «Studio-A» Фріки записали усе наштудіроване за рік неподобство і нарекли це АЛЬБОМ!
Log

Exact Audio Copy V0.99 prebeta 5 from 4. May 2009

EAC extraction logfile from 12. November 2010, 16:49

da Freak's Show / [R]evolution як постріл у спину

Used drive : HL-DT-STDVD-RAM GH22NS30 Adapter: 3 ID: 0

Read mode : Secure
Utilize accurate stream : Yes
Defeat audio cache : Yes
Make use of C2 pointers : No

Read offset correction : 102
Overread into Lead-In and Lead-Out : No
Fill up missing offset samples with silence : Yes
Delete leading and trailing silent blocks : No
Null samples used in CRC calculations : Yes
Used interface : Native Win32 interface for Win NT & 2000
Gap handling : Appended to previous track

Used output format : User Defined Encoder
Selected bitrate : 128 kBit/s
Quality : High
Add ID3 tag : No
Command line compressor : C:\Program Files\Exact Audio Copy\Flac\flac.exe
Additional command line options : -8 -V -T "ARTIST=%a" -T "TITLE=%t" -T "ALBUM=%g" -T "DATE=%y" -T "TRACKNUMBER=%n" -T "GENRE=%m" -T "COMMENT=EAC FLAC -8" %s

TOC of the extracted CD

Track | Start | Length | Start sector | End sector
---------------------------------------------------------
1 | 0:00.00 | 3:10.15 | 0 | 14264
2 | 3:10.15 | 3:19.58 | 14265 | 29247
3 | 6:29.73 | 4:26.49 | 29248 | 49246
4 | 10:56.47 | 3:24.36 | 49247 | 64582
5 | 14:21.08 | 3:44.55 | 64583 | 81437
6 | 18:05.63 | 5:11.15 | 81438 | 104777
7 | 23:17.03 | 3:26.27 | 104778 | 120254
8 | 26:43.30 | 4:57.00 | 120255 | 142529
9 | 31:40.30 | 3:02.39 | 142530 | 156218

Track 1

Filename E:\Music\Da Freak's Show\01. Revolution (intro).wav

Pre-gap length 0:00:02.00

Peak level 100.0 %
Track quality 100.0 %
Test CRC E6C1593A
Copy CRC E6C1593A
Track not present in AccurateRip database
Copy OK

Track 2

Filename E:\Music\Da Freak's Show\02. Постріл.wav

Pre-gap length 0:00:02.00

Peak level 100.0 %
Track quality 100.0 %
Test CRC 9599EA50
Copy CRC 9599EA50
Track not present in AccurateRip database
Copy OK

Track 3

Filename E:\Music\Da Freak's Show\03. Крок за кроком.wav

Pre-gap length 0:00:02.00

Peak level 100.0 %
Track quality 99.9 %
Test CRC CECA7466
Copy CRC CECA7466
Track not present in AccurateRip database
Copy OK

Track 4

Filename E:\Music\Da Freak's Show\04. Поле бою.wav

Pre-gap length 0:00:02.00

Peak level 100.0 %
Track quality 100.0 %
Test CRC B8B7B055
Copy CRC B8B7B055
Track not present in AccurateRip database
Copy OK

Track 5

Filename E:\Music\Da Freak's Show\05. Анти - емо (2010).wav

Pre-gap length 0:00:02.00

Peak level 100.0 %
Track quality 100.0 %
Test CRC 5DE744FF
Copy CRC 5DE744FF
Track not present in AccurateRip database
Copy OK

Track 6

Filename E:\Music\Da Freak's Show\06. Жуйка (satisfaction version).wav

Pre-gap length 0:00:02.00

Peak level 100.0 %
Track quality 100.0 %
Test CRC 2BAA3BE8
Copy CRC 2BAA3BE8
Track not present in AccurateRip database
Copy OK

Track 7

Filename E:\Music\Da Freak's Show\07. Собак@.wav

Pre-gap length 0:00:02.00

Peak level 100.0 %
Track quality 100.0 %
Test CRC 94D3B892
Copy CRC 94D3B892
Track not present in AccurateRip database
Copy OK

Track 8

Filename E:\Music\Da Freak's Show\08. Молодь золота.wav

Pre-gap length 0:00:02.00

Peak level 99.9 %
Track quality 100.0 %
Test CRC 0E2AE7F7
Copy CRC 0E2AE7F7
Track not present in AccurateRip database
Copy OK

Track 9

Filename E:\Music\Da Freak's Show\09. Трек №9 (Соплі).wav

Pre-gap length 0:00:02.00

Peak level 100.0 %
Track quality 100.0 %
Test CRC 5EC681F5
Copy CRC 5EC681F5
Track not present in AccurateRip database
Copy OK

None of the tracks are present in the AccurateRip database

No errors occurred

End of status report
Якщо Ви справді бажаєте підтримати українське - після прослуховування, якщо музика вам сподобалась, придбайте ліцензійний диск. Підтримаймо вітчизняних виконавців!


Срібний реліз (на рейтинг впливає 50% завантаженого)
 Трекер:    Зареєстрований   

Завантажити / скачати українську музику



відео для новачків



 Зареєстрований:   2013-05-18 14:46
 Розмір:   252 MB 
 Оцінка музики:   7.3/10 (Голосів: 4)
   
vovchyck 
Свій


З нами з: 22.02.09
Востаннє: 10.12.16
Повідомлень: 146

2016-03-01 23:42  
крок за кроком є повністю?
Ваш часовий пояс: GMT + 2 Години

Нова тема   Відповісти