Завантажити та скачати торренти українською


De SHIFER - Terrorist (2001) [FLAC] | Alternative

Нові коментарі

Нова тема   Відповісти
Автор Повідомлення
iwan wan 
VIP


З нами з: 01.10.09
Востаннє: 05.12.16
Повідомлень: 1756

2013-05-18 14:39  
De SHIFER - Terrorist (2001) [FLAC] | Alternative

De SHIFER - Terrorist (2001) [FLAC] | Alternative

Стиль: Alternative
Сайти: Офіційний сайт
Видавець: Moon records
Виконавці:
Дмитро Богуш ("SHIFeR") - вокал, гiтара, бек
Максим Гончар ("МAX") - гiтара, бек-вокал
Андрiй Богданов ("MAIDEN") - бас гiтара
ILF.FA - вокал (12)
Пісні:
    1. Коко
    2. Не iди
    3. Ось така любов
    4. Без тебе
    5. Не журись
    6. Не жени мене геть
    7. Моя мiлiцiя мене береже
    8. Життя наперекосяк
    9. Не забувай вертатись
    10. Розпрягайте хлопцi коней
    11. Темнота
    Bonus: ILF.FA
    12. Дивнi речi

Тривалість: 00:43:59
Мова: українська (1-10, 12), російська (11)
Аудіо-кодек: FLAC
Бітрейт: 927 кб/с
Джерело: Рутрекер.орг
Додаткова інформація:
Сашко Положинський (9 - вокал),
Музика:
Дмитро SHIFeR
Слова:
Евген Колесник (5 - 8, 11),
Сашко Положинський (2, 4, 9),
Сашко Чемеров (3),
Дмитро SHIFeR (1),
ILF.FA (12),
Народ (10)

У запису використовувалось:
нестандартна диссонансна система вокалiза, гiтарний процесор BULLDOZER, коробка вiд пульта DELTA, несерьйозна фiлософiя текстiв, неформатна висаджуюча на iзмену нота, бiла магiя, шаманськi ЗАЕЗДЫ, 28 кг енергайзера, одним словом вся фігня.

Саунд, продюсування, звукорежесyра та аранжування Дмитро SHIFeR
Запис здiйснений на власнiй студii "SHIFER-STUDIO"
Премастер гiтар "VLRecords"
Мастерiнг альбому студiя "КОМОРА"
Log

Exact Audio Copy V0.99 prebeta 4 from 23. January 2008

Звіт EAC про видобування, котре виконане 31. серпня 2010, 22:14

De Shifer / Terrorist

Дисковод: TSSTcorpCDDVDW SH-S202J Adapter: 0 ID: 1

Режим читання : Точний
Використати точний потік : Так
Вимкнути аудіо кеш : Так
Застосувати мітки C2 : Ні

Корекція зміщення при читанні : 6
Екстрачитання областей Lead-in і Lead-out : Ні
Заповнення пропущених семплів тишею : Так
Видалення блоків з тишею на початку і кінці : Ні
При вирахуванні CRC використовувались нульові семпли : Так
Використаний інтерфейс : Встановлений зовнішній ASPI-інтерфейс
Поводження з проміжками : Приєднано до попереднього трека

Застосований вихідний формат : Кодер Користувача
Обраний бітрейт : 128 kBit/s
Якість : Високий
Додати тег ID3 : Ні
Компресор командного рядка : C:\Program Files\FLAC\flac.exe
Додаткові параметри командного рядка : -8 -V -T "ARIST=%a" -T "TITLE=%t" -T "ALBUM=%g" -T "DATE=%y" -T "TRACKNUMBER=%n" -T "GENRE=%m" -T "COMMENT=EAC FLAC -8" %s

TOC видобутого CD

Трек | Старт | Довжина | Початковий сектор | Кінцевий сектор
------------------------------------------------------------------
1 | 0:00.00 | 2:43.56 | 0 | 12280
2 | 2:43.56 | 3:18.63 | 12281 | 27193
3 | 6:02.44 | 3:28.69 | 27194 | 42862
4 | 9:31.38 | 3:25.07 | 42863 | 58244
5 | 12:56.45 | 3:45.33 | 58245 | 75152
6 | 16:42.03 | 4:07.70 | 75153 | 93747
7 | 20:49.73 | 4:01.51 | 93748 | 111873
8 | 24:51.49 | 4:15.65 | 111874 | 131063
9 | 29:07.39 | 3:32.28 | 131064 | 146991
10 | 32:39.67 | 3:33.09 | 146992 | 162975
11 | 36:13.01 | 4:17.20 | 162976 | 182270
12 | 40:30.21 | 3:30.13 | 182271 | 198033

Трек 1

Ім'я файлу D:\Медіа\De Shifer\01. De Shifer - Коко.wav

Довжина проміжка 0:00:02.00

Піковий рівень 96.6 %
Якість трека 100.0 %
CRC тесту E8439DFA
CRC копії E8439DFA
Трек не присутній в базі Точного Видобування
Копіювання... OK

Трек 2

Ім'я файлу D:\Медіа\De Shifer\02. De Shifer - Не іди.wav

Довжина проміжка 0:00:02.00

Піковий рівень 96.6 %
Якість трека 100.0 %
CRC тесту 5615C558
CRC копії 5615C558
Трек не присутній в базі Точного Видобування
Копіювання... OK

Трек 3

Ім'я файлу D:\Медіа\De Shifer\03. De Shifer - Ось така любов.wav

Довжина проміжка 0:00:02.00

Піковий рівень 96.6 %
Якість трека 100.0 %
CRC тесту 25945160
CRC копії 25945160
Трек не присутній в базі Точного Видобування
Копіювання... OK

Трек 4

Ім'я файлу D:\Медіа\De Shifer\04. De Shifer - Без тебе.wav

Довжина проміжка 0:00:02.00

Піковий рівень 96.6 %
Якість трека 100.0 %
CRC тесту 9F4A95B3
CRC копії 9F4A95B3
Трек не присутній в базі Точного Видобування
Копіювання... OK

Трек 5

Ім'я файлу D:\Медіа\De Shifer\05. De Shifer - Не журись.wav

Довжина проміжка 0:00:02.00

Піковий рівень 96.6 %
Якість трека 99.9 %
CRC тесту 08FA1D70
CRC копії 08FA1D70
Трек не присутній в базі Точного Видобування
Копіювання... OK

Трек 6

Ім'я файлу D:\Медіа\De Shifer\06. De Shifer - Не жени мене геть.wav

Довжина проміжка 0:00:02.00

Піковий рівень 96.6 %
Якість трека 100.0 %
CRC тесту D4AEDDC7
CRC копії D4AEDDC7
Трек не присутній в базі Точного Видобування
Копіювання... OK

Трек 7

Ім'я файлу D:\Медіа\De Shifer\07. De Shifer - Моя міліція мене береже.wav

Довжина проміжка 0:00:02.00

Піковий рівень 96.6 %
Якість трека 100.0 %
CRC тесту 283B5DE4
CRC копії 283B5DE4
Трек не присутній в базі Точного Видобування
Копіювання... OK

Трек 8

Ім'я файлу D:\Медіа\De Shifer\08. De Shifer - Життя наперекосяк.wav

Довжина проміжка 0:00:02.00

Піковий рівень 96.6 %
Якість трека 100.0 %
CRC тесту F8AEEB54
CRC копії F8AEEB54
Трек не присутній в базі Точного Видобування
Копіювання... OK

Трек 9

Ім'я файлу D:\Медіа\De Shifer\09. De Shifer - Не забувай вертатись.wav

Довжина проміжка 0:00:02.00

Піковий рівень 96.6 %
Якість трека 100.0 %
CRC тесту C04FD217
CRC копії C04FD217
Трек не присутній в базі Точного Видобування
Копіювання... OK

Трек 10

Ім'я файлу D:\Медіа\De Shifer\10. De Shifer - Розпрягайте хлопці коней.wav

Довжина проміжка 0:00:02.00

Піковий рівень 96.6 %
Якість трека 100.0 %
CRC тесту 1C6F9674
CRC копії 1C6F9674
Трек не присутній в базі Точного Видобування
Копіювання... OK

Трек 11

Ім'я файлу D:\Медіа\De Shifer\11. De Shifer - Темнота.wav

Довжина проміжка 0:00:02.00

Піковий рівень 96.6 %
Якість трека 100.0 %
CRC тесту 1602810E
CRC копії 1602810E
Трек не присутній в базі Точного Видобування
Копіювання... OK

Трек 12

Ім'я файлу D:\Медіа\De Shifer\12. De Shifer - Ilf.Fa - Дивні речі.wav

Довжина проміжка 0:00:02.00

Піковий рівень 96.6 %
Якість трека 99.8 %
CRC тесту 9709C304
CRC копії FF9B9EE0
Трек не присутній в базі Точного Видобування
Копіювання... OK

Жодного трека немає в базі AccurateRip

Помилки не траплялися

Кінець звіту
Якщо Ви справді бажаєте підтримати українське - після прослуховування, якщо музика вам сподобалась, придбайте ліцензійний диск. Підтримаймо вітчизняних виконавців!


Срібний реліз (на рейтинг впливає 50% завантаженого)
 Трекер:    Зареєстрований   

Завантажити / скачати українську музику



відео для новачків



 Зареєстрований:   2013-05-18 14:39
 Розмір:   319 MB 
 Оцінка музики:   10/10 (Голосів: 7)
   
Gratix02 
Свій


З нами з: 08.01.12
Востаннє: 30.10.16
Повідомлень: 80

2014-08-31 21:10  
Крутий альбомчик. Любителям альтернативи/мітолу наполеглево рекомендую завантажити. Воно того варте. Сподобались такі пісні:
1. Коко
2. Не iди
3. Ось така любов
4. Без тебе
5. Не журись
9. Не забувай вертатись

Велика подяка за якісний реліз.

Ваш часовий пояс: GMT + 2 Години

Нова тема   Відповісти