Завантажити та скачати торренти українською


Сергій Василюк - Сховане обличчя (2010) [FLAC] | Rock

Нові коментарі

Нова тема   Відповісти
Останній раз роздавалося Dimon-ZuluS (2016-12-03)
Автор Повідомлення
Anonymous 







2013-05-18 13:54  
Сергій Василюк - Сховане обличчя (2010) [FLAC] | Rock


Стиль: Rock
Країна, місто: Україна,Київ
Видавець: УКРМЮЗІК
Виконавці:
Сергій Василюк (музика, слова (Крім 1 - слова Василь Стус))
Запрошені музиканти:
Андрій Хаврук (1 - клавішні, 10 - гітара)
Ольга Мільграндт (6 - віолончель)
Соня Рогальська (10 - скрипка)
Пісні:
    1. У цьому полі, синьому, як льон (01:49)
    2. Вишневий садок (04:51)
    3. Твоє місто (01:44)
    4. Дівчина з Павлодару (05:46)
    5. Добрий ангел (02:27)
    6. До приходу ночі (04:53)
    7. У небі вільного вітру (03:05)
    8. Човни (03:39)
    9. Іншої не було (03:55)
    10. Зачинені брами (03:38)
    11. До самих небес (02:46)
    12. Сховане обличчя (03:18)

Тривалість: 00:41:51
Мова: українська
Аудіо-кодек: MP3
Бітрейт: 880 кб/с
Джерело: Рутрекер.орг
Додаткова інформація:
За спеціальністю географ, еколог та вчитель англійської мови. Захоплюється етнографією, історією. З дитинства цікавився музикою, років з дев'яти пробував себе як композитор. Тексти спершу не дуже вдавалися, тому перший гурт Сергія, створений із братом Олексієм, здебільшого виконував кавери на улюблену на той час «Машину Времени».

З часом в суто російськомовному середовищі з найближчими людьми перейшов на українську. Вважає, що любов до України насамперед привили батько, гурт «Скрябін» (який розцінює як найбільш авангардне явище вітчизняної сцени 1995—2000 рр) та репетитор з української пані Наталя.

Почав грати на акустичній гітарі з 2000-го, після того, як батько переконав у тому, що музику будують саме на акордах. На бас-гітарі грає з 2002 року, взірцем гри на басу вважає Стіва Гарріса.

До музичних вподобань належать Iron Maiden, Алиса, Кино, Машина Времени, Кому Вниз, Gods Tower, King Diamond, Royal Hunt, Virgin Steele, АукцЫон, Аквариум, Ace of Base, Depeche Mode, Скрябін (старого зразка), Василь Жданкін.

Сольну діяльність розпочав 2009 року, провівши акустичне турне Україною. З того ж часу Сергій почав свою співпрацю з історичним клубом «Холодний Яр», відвідуючи більшість його акцій та заходів. 2010 року видав свій перший сольний альбом «Сховане обличчя» і здійснив другий тур Україною, взявши крім того участь у багатьох інших заходах, з-поміж яких виступ на Майдані Незалежності під час страйку підприємців.
Log

Exact Audio Copy V1.0 beta 3 from 29. August 2011

Отчёт EAC об извлечении, выполненном 2. апреля 2012, 0:25

Сергій Василюк / Сховане обличчя

Дисковод: PIONEER DVD-RW DVRTD10RS Adapter: 1 ID: 0

Режим чтения : Достоверность
Использование точного потока : Да
Отключение кэша аудио : Да
Использование указателей C2 : Нет

Коррекция смещения при чтении : 6
Способность читать области Lead-in и Lead-out : Нет
Заполнение пропущенных сэмплов тишиной : Да
Удаление блоков с тишиной в начале и конце : Нет
При вычислениях CRC использовались нулевые сэмплы : Да
Интерфейс : Установленный внешний ASPI-интерфейс

Выходной формат : Пользовательский кодировщик
Выбранный битрейт : 896 kBit/s
Качество : Высокий
Добавление ID3-тега : Нет
Утилита сжатия : E:\Program Files\Exact Audio Copy\Flac\flac.exe
Дополнительные параметры : -V -8 -T "Date=%year%" -T "Genre=%genre%" %source%

TOC извлечённого CD

Трек | Старт | Длительность | Начальный сектор | Конечный сектор
---------------------------------------------------------------------
1 | 0:00.00 | 1:49.32 | 0 | 8206
2 | 1:49.32 | 4:51.16 | 8207 | 30047
3 | 6:40.48 | 1:44.22 | 30048 | 37869
4 | 8:24.70 | 5:45.50 | 37870 | 63794
5 | 14:10.45 | 2:27.29 | 63795 | 74848
6 | 16:37.74 | 4:52.27 | 74849 | 96775
7 | 21:30.26 | 3:04.69 | 96776 | 110644
8 | 24:35.20 | 3:39.52 | 110645 | 127121
9 | 28:14.72 | 3:54.27 | 127122 | 144698
10 | 32:09.24 | 3:38.23 | 144699 | 161071
11 | 35:47.47 | 2:45.55 | 161072 | 173501
12 | 38:33.27 | 3:17.48 | 173502 | 188324

Характеристики диапазона извлечения и сообщения об ошибках

Выбранный диапазон

Имя файла E:\Music\Сергій Василюк\Сергій Василюк - Сховане обличчя.wav

Пиковый уровень 100.0 %
Скорость извлечения 3.9 X
Качество диапазона 100.0 %
CRC теста 4BD92921
CRC копии 4BD92921
Копирование... OK

Ошибок не произошло

Конец отчёта

==== Контрольная сумма отчёта 232BD204D69FCECFE8D792DDA46C43FCBC15CB6E9BCBD3CD926988556B1C6445 ====
Якщо Ви справді бажаєте підтримати українське - після прослуховування, якщо музика вам сподобалась, придбайте ліцензійний диск. Підтримаймо вітчизняних виконавців!


Срібний реліз (на рейтинг впливає 50% завантаженого)
 Трекер:    Зареєстрований   

Завантажити / скачати українську музику



відео для новачків



 Зареєстрований:   2013-05-18 13:54
 Розмір:   271 MB 
 Оцінка музики:   10/10 (Голосів: 9)
   
ssTAss 
Модератор музики


З нами з: 05.07.08
Востаннє: 04.12.16
Повідомлень: 10934

2013-05-18 14:02  
iwan wan написано:
(20010)

Wide grin

Anonymous 







2013-05-18 14:06  
ssTAss написано:
(20010)

))) альбом то з майбутнього))

Ваш часовий пояс: GMT + 2 Години

Нова тема   Відповісти