Завантажити та скачати торренти українською


Людина, що біжить / The Running Man (1987) 1080p 2хUkr/Eng | Sub Eng

Нові коментарі

Нова тема   Відповісти
Автор Повідомлення
Anonymous 







2013-05-17 22:51  
Людина, що біжить / The Running Man (1987) 1080p 2хUkr/Eng | Sub Eng



Жанр: бойовик, фантастика, трилер
Країна: США



Кінокомпанія: Braveworld Productions, Home Box Office (HBO), Keith Barish Productions
Режисер: Пол Майкл Ґлазер / Paul Michael Glaser
Актори: Арнольд Шварценеґґер / Arnold Schwarzenegger, Марія Кончіта Алонсо / Maria Conchita Alonso, Япет Котто / Yaphet Kotto, Джим Браун / Jim Brown та інші.

Сюжет:
Після руйнівного землетрусу та кризи до влади в США приходить тоталітарний уряд. Демократичні інститути виявляються зруйнованими, введено цензуру і комендантську годину. Звичаї в країні стали відповідними: найбільш популярними телепрограмами стали жорстокі й криваві телешоу.
Офіцер поліції Бен Річардс відмовився виконати наказ розстріляти з вертольота учасників голодного бунту в Каліфорнії і був заарештований. Йому та його товаришам пропонують взяти участь у кривавому телевізійному шоу "Людина, що біжить", в якому він має по-справжньому битися з жахливими монстрами.
Цікаві факти

• Річард Доусон, який грав творця та ведучого телешоу «Найнебезпечніша гра» Деймона Кілліана в реальному житті також є ведучим американського ігрового шоу «Сімейна сварка» (Family Feud).
• Танцювальні номери для дівчат з шоу ставила відома поп-співачка і танцівниця Пола Абдул (Paula Abdul).
• У цій картині, як і в багатьох інших, Арнольд Шварцененггер також вимовляє свою коронну фразу: «Я повернуся!» (I’ll be back!).
• Спочатку на роль Бена Річардса намічався Крістофер Рівз (Christopher Reeves).
• Цінителі кіно помітили навіть таку дрібну помилку творців фільму, як невідповідність географічних координат. А саме: якщо у вертольоті, що летить над Бейкерсфілдом, показані координати - 45 градусів північної широти і 19 градусів східної довготи, то в реальності ця місцевість має координати - 35,3 і 119 відповідно.
• Одним з кандидатів на головну роль був Дольф Лундгрен.
• Фільм знятий за твором Річарда Бахмана. Це псевдонім Стівена Кінга.
• Письменник Роберт Шеклі подав до суду на творців картини, звинувачуючи їх у плагіаті.
• Стівен Кінг, за чутками, залишився незадоволений постановкою і виконавцем головної ролі.
• Вперше за всю свою кінокар'єру в цьому фільмі Шварценеггер з'явився з бородою на обличчі (У сцені, коли з його шиї знімають нашийник з вибухівкою, а також, у попередній сцені втечі з тюрми). Арні з бородою ще був на початку фільму «Поліцейський з дитячого садку» та у фільмі «Конан-варвар», відразу перед фінальними титрами.
• Код, що деактивує нашийники, - 653-9X.
• Стівен Кінг заборонив вказувати своє ім'я в рекламі і на обкладинці фільму.
рейтинг MPAA: R - особам до 17 років обов'язкова присутність батьків або дорослого опікуна
Вікова категорія: 16+

Тривалість: 01:40:43
Якість: 1080p
Відео:
кодек:
розмір кадру: 1920x1080
бітрейт: 8450 кб/с

Аудіо # 1:
мова: українська Так Треба Продакшн на замовлення
переклад: багатоголосий закадровий
кодек: 2.0
бітрейт: 192 кб/с

Аудіо # 2:
мова: українська Так Треба Продакшн на замовлення
переклад: багатоголосий закадровий
кодек: 2.0
бітрейт: 192 кб/с

Аудіо # 3:
мова: англійська
переклад: оригінал
кодек: 5.1
бітрейт: 1510 кб/с

Субтитри:
мова: англійська (повні)
тип: програмні (м'які)
формат: *.srt

Субтитри:
мова: англійська (SDH - для людей з вадами слуху)
тип: програмні (м'які)
формат: *.srt

Збережено оригінальні розділи, як на Blu-ray.
MediaInfo
General
Unique ID : 173443551486899811870643500218404491015 (0x827C03507DC2615FABF0C9D7C09ACF07)
Complete name : The.Running.Man.1987..1080p.2xUkr.Eng.mkv
Format : Matroska
Format version : Version 4 / Version 2
File size : 7.19 GiB
Duration : 1h 40mn
Overall bit rate : 10.2 Mbps
Movie name : Людина, що біжить / The Running Man / Бегущий человек (1987), rip by Neofilm
Encoded date : UTC 2013-05-17 10:03:10
Writing application : mkvmerge v6.2.0 ('Promised Land') built on Apr 28 2013 12:22:01
Writing library : libebml v1.3.0 + libmatroska v1.4.0

Video
ID : 1
Format : AVC
Format/Info : Advanced Video Codec
Format profile : [email protected]
Format settings, CABAC : Yes
Format settings, ReFrames : 4 frames
Codec ID : V_MPEG4/ISO/AVC
Duration : 1h 40mn
Bit rate : 8 450 Kbps
Width : 1 920 pixels
Height : 1 080 pixels
Display aspect ratio : 16:9
Frame rate mode : Constant
Frame rate : 23.976 fps
Color space : YUV
Chroma subsampling : 4:2:0
Bit depth : 8 bits
Scan type : Progressive
Bits/(Pixel*Frame) : 0.170
Stream size : 5.72 GiB (79%)
Title : Людина, що біжить / The Running Man / Бегущий человек (1987), rip by Neofilm
Writing library : core 112 r1867 22bfd31
Encoding settings : cabac=1 / ref=4 / deblock=1:-1:-1 / analyse=0x3:0x113 / me=umh / subme=9 / psy=1 / psy_rd=1.05:0.05 / mixed_ref=1 / me_range=32 / chroma_me=1 / trellis=2 / 8x8dct=1 / cqm=0 / deadzone=21,11 / fast_pskip=0 / chroma_qp_offset=-3 / threads=6 / sliced_threads=0 / nr=0 / decimate=0 / interlaced=0 / constrained_intra=0 / bframes=3 / b_pyramid=2 / b_adapt=2 / b_bias=0 / direct=3 / weightb=1 / open_gop=0 / weightp=2 / keyint=250 / keyint_min=23 / scenecut=40 / intra_refresh=0 / rc_lookahead=40 / rc=abr / mbtree=1 / bitrate=8450 / ratetol=1.5 / qcomp=0.60 / qpmin=10 / qpmax=51 / qpstep=4 / vbv_maxrate=40000 / vbv_bufsize=40000 / nal_hrd=none / ip_ratio=1.40 / aq=1:1.00
Language : English
Default : Yes
Forced : No

Audio #1
ID : 2
Format : AC-3
Format/Info : Audio Coding 3
Mode extension : CM (complete main)
Format settings, Endianness : Big
Codec ID : A_AC3
Duration : 1h 40mn
Bit rate mode : Constant
Bit rate : 192 Kbps
Channel(s) : 2 channels
Channel positions : Front: L R
Sampling rate : 48.0 KHz
Bit depth : 16 bits
Compression mode : Lossy
Stream size : 138 MiB (2%)
Title : MVO [Inter-TakTrebaProduction] 2.0 192 Kbps [Hurtom-robotron005]
Language : Ukrainian
Default : Yes
Forced : No

Audio #2
ID : 3
Format : AC-3
Format/Info : Audio Coding 3
Mode extension : CM (complete main)
Format settings, Endianness : Big
Codec ID : A_AC3
Duration : 1h 40mn
Bit rate mode : Constant
Bit rate : 192 Kbps
Channel(s) : 2 channels
Channel positions : Front: L R
Sampling rate : 48.0 KHz
Bit depth : 16 bits
Compression mode : Lossy
Stream size : 138 MiB (2%)
Title : MVO [ICTV-TakTrebaProduction] 2.0 192 Kbps [Hurtom-Romario_O, robotron005]
Language : Ukrainian
Default : No
Forced : No

Audio #3
ID : 4
Format :
Format/Info : Digital Theater Systems
Mode : 16
Format settings, Endianness : Big
Codec ID : A_DTS
Duration : 1h 40mn
Bit rate mode : Constant
Bit rate : 1 509 Kbps
Channel(s) : 6 channels
Channel positions : Front: L C R, Side: L R, LFE
Sampling rate : 48.0 KHz
Bit depth : 24 bits
Compression mode : Lossy
Stream size : 1.06 GiB (15%)
Title : Original -HD MA 7.1 1510 Kbps
Language : English
Default : No
Forced : No

Text #1
ID : 5
Format : UTF-8
Codec ID : S_TEXT/UTF8
Codec ID/Info : UTF-8 Plain Text
Title : Eng full
Language : English
Default : Yes
Forced : No

Text #2
ID : 6
Format : UTF-8
Codec ID : S_TEXT/UTF8
Codec ID/Info : UTF-8 Plain Text
Title : Eng full SDH
Language : English
Default : No
Forced : No

Menu
00:00:00.000 : en:Chapter 00
00:03:21.576 : en:Chapter 01
00:09:36.158 : en:Chapter 02
00:14:31.537 : en:Chapter 03
00:16:36.704 : en:Chapter 04
00:21:57.357 : en:Chapter 05
00:24:32.012 : en:Chapter 06
00:27:58.385 : en:Chapter 07
00:34:06.711 : en:Chapter 08
00:39:19.315 : en:Chapter 09
00:43:57.885 : en:Chapter 10
00:45:14.962 : en:Chapter 11
00:49:27.381 : en:Chapter 12
00:53:38.632 : en:Chapter 13
00:57:17.183 : en:Chapter 14
01:02:37.170 : en:Chapter 15
01:05:09.488 : en:Chapter 16
01:09:18.195 : en:Chapter 17
01:14:34.970 : en:Chapter 18
01:18:05.430 : en:Chapter 19
01:22:41.122 : en:Chapter 20
01:25:50.395 : en:Chapter 21
01:29:39.665 : en:Chapter 22
01:34:29.037 : en:Chapter 23


Джерела та подяки: ріп відео, оригінальний звук - Neofilm; українські доріжки з релізу robotron005, крім нього також працювали Romario_O та ratbol; український постер - Vladdrako17 (всі - Гуртом).

Особиста оцінка: 8 - мені сподобалося

ЗАЛИШАЙТЕСЬ ЯКОМОГА ДОВШЕ НА РОЗДАЧІ, НЕ ОБМЕЖУЙТЕ ШВИДКІСТЬ ВІДДАЧІ!

СКАЧАВ САМ - ДАЙ СКАЧАТИ ІНШИМ


Срібний реліз (на рейтинг впливає 50% завантаженого)
 Трекер:    Зареєстрований   

Завантажити / скачати фільм українською



відео для новачків



 Зареєстрований:   2013-05-17 22:51
 Розмір:   7.19 GB 
 Оцінка фільму:   7/10 (Голосів: 31)
   
Інші релізи
Anonymous 







2013-05-17 23:01  
Hentaihunter написано:

Даний фільм є екранізацією твору Стівена Кінґа "Переслідуваний" (1982, під псевдонімом Річард Бахман, 1991 - укр.переклад у журналі "Всесвіт"), він вельми далекий від сюжету роману (а не новели) і фактично є «фільмом за мотивами», або навіть рімейком фільму Вербі Буассе «Ціна ризику», знятого в 1983 році за повістю Р. Шеклі. Епізод з підставною відеозйомкою загибелі головного героя був узятий з фільму Франсуа Трюффо за повістю Р. Бредбері «451 градус за Фаренгейтом». Епізод з відмовою головного героя фільму (пілота військового гелікоптера) стріляти по беззбройних людях узятий з фільму Григорія Чухрая «Життя прекрасне» 1980 р.

Оригінальний сюжет романа взагалі погано підходив під канони голівудського кінематографу - цивільне суспільство США змальоване в книзі не найгіднішим чином, підкреслюється гостра соціальна нерівність, а головне - відсутній традиційний для голлівудського кіно «хепі-енд» (благополучна розв'язка сюжету). Тому фільм всього лише запозичує з роману ідею телешоу з полюванням на людей та ім'я головного героя, причому правила шоу також змінені.

Після терористичних актів 11 вересня 2001 року роман остаточно втратив усі шанси на близьку до тексту екранізацію, оскільки останньою сценою в ньому є зіткнення пасажирського літака з висотною будівлею.

Ваш часовий пояс: GMT + 2 Години

Нова тема   Відповісти