Завантажити та скачати торренти українською


Справу зроблено / Made (2001) 720р 2xUkr/Eng

Нові коментарі

Нова тема   Відповісти
Автор Повідомлення
bodia87 
Відео Гуртом - фільмокрай
Відео Гуртом - фільмокрай


З нами з: 24.01.09
Востаннє: 09.12.16
Повідомлень: 468

2013-05-17 20:50  
Справу зроблено / Made (2001) 720р 2xUkr/Eng

Справу зроблено / Made (2001) 720р 2xUkr/Eng


Жанр: кримінальний, драма, комедія
Країна: США



Кінокомпанія: Artisan Entertainment, Cardiff Giant Productions
Режисер: Джон Фавро
Актори: Джон Фавро (Bobby), Вінс Вон (Ricky), Шон ’Пі Дідді’ Комбс (Ruiz), Фамке Янссен (Jessica), Фейзон Лав (Horrace), Пітер Фальк (Max), Джо Гуссен (Referee), Макензі Вега (Chloe), Джентіл (Wendy), Том Морелло (Best Man), Джонатан Сільвермен (Bachelor), Кімберлі Дейвіс (Bartender)

Сюжет:
Двоє друзів, боксери-аматори: Бобі і Ріккі не розбещені грошима. І це сильно псує їм життя. Але одного разу вони отримують шанс поправити свої справи. Місцевий авторитет відправляє їх з дорученням до Нью-Йорку.
І якщо для Бобі це просто чергова робота, то для Ріккі - шлях до давньої мрії стати крутим хлопцем. Шикарний прийом на Манхеттені зовсім збиває Ріккі з пантелику. Світ великих грошей: лімузин, клуби, дівчата - ось воно, здійснилося! І він вирішує, що все зроблено, і вони вже круті бандити! І коли він майже звик до нової ролі, прийшов час зробити те, за чим вони сюди приїхали.


Тривалість: 01:34:47
Якість: 720p
Відео:
кодек:
розмір кадру: 1280 х 720
бітрейт: 5066 кб/с

Аудіо # 1:
мова: українська
переклад: багатоголосий закадровий
кодек: 5.1
бітрейт: 448 кб/с

Аудіо # 2: Компанія "КІТ"
мова: українська
переклад: двоголосий закадровий
кодек: 2.0
бітрейт: 192 кб/с

Аудіо # 3:
мова: англійська
переклад: оригінал
кодек: 5.1
бітрейт: 448 кб/с
MediaInfo
General
Unique ID : 253897106576792355612989599419352031157 (0xBF02CDD53C1073C4AA2DBE5A3F591FB5)
Complete name : F:\Release\Made (2001) 720p [2xUKR.ENG] Hurtom.mkv
Format : Matroska
Format version : Version 4 / Version 2
File size : 4.08 GiB
Duration : 1h 34mn
Overall bit rate : 6 155 Kbps
Movie name : Made (2001) 2UKR.ENG for Hurtom.com
Encoded date : UTC 2013-03-09 16:05:21
Writing application : mkvmerge v6.0.0 ('Coming Up For Air') built on Jan 20 2013 09:52:00
Writing library : libebml v1.3.0 + libmatroska v1.4.0

Video
ID : 1
Format : AVC
Format/Info : Advanced Video Codec
Format profile : [email protected]
Format settings, CABAC : No
Format settings, ReFrames : 5 frames
Codec ID : V_MPEG4/ISO/AVC
Duration : 1h 34mn
Bit rate : 5 066 Kbps
Width : 1 280 pixels
Height : 720 pixels
Display aspect ratio : 1.85:1
Frame rate mode : Constant
Frame rate : 23.976 fps
Color space : YUV
Chroma subsampling : 4:2:0
Bit depth : 8 bits
Scan type : Progressive
Bits/(Pixel*Frame) : 0.229
Stream size : 3.27 GiB (80%)
Writing library : core 84 r1416kGIT fcf70c2
Encoding settings : cabac=0 / ref=5 / deblock=0:0:0 / analyse=0:0x131 / me=umh / subme=7 / psy=1 / psy_rd=1.0:0.0 / mixed_ref=0 / me_range=16 / chroma_me=1 / trellis=0 / 8x8dct=0 / cqm=0 / deadzone=21,11 / fast_pskip=1 / chroma_qp_offset=-2 / threads=12 / sliced_threads=0 / nr=0 / decimate=1 / mbaff=0 / constrained_intra=0 / bframes=3 / b_pyramid=0 / b_adapt=1 / b_bias=0 / direct=1 / wpredb=1 / wpredp=0 / keyint=240 / keyint_min=24 / scenecut=0 / intra_refresh=0 / rc=2pass / mbtree=0 / bitrate=5066 / ratetol=1.0 / qcomp=0.60 / qpmin=10 / qpmax=51 / qpstep=4 / cplxblur=20.0 / qblur=0.5 / ip_ratio=1.40 / pb_ratio=1.30 / aq=0
Language : English
Default : No
Forced : No

Audio #1
ID : 2
Format : AC-3
Format/Info : Audio Coding 3
Mode extension : CM (complete main)
Format settings, Endianness : Big
Codec ID : A_AC3
Duration : 1h 34mn
Bit rate mode : Constant
Bit rate : 448 Kbps
Channel(s) : 6 channels
Channel positions : Front: L C R, Side: L R, LFE
Sampling rate : 48.0 KHz
Bit depth : 16 bits
Compression mode : Lossy
Stream size : 304 MiB (7%)
Title : Ukr for Hurtom.com
Language : Ukrainian
Default : No
Forced : No

Audio #2
ID : 3
Format : AC-3
Format/Info : Audio Coding 3
Mode extension : CM (complete main)
Format settings, Endianness : Big
Codec ID : A_AC3
Duration : 1h 34mn
Bit rate mode : Constant
Bit rate : 192 Kbps
Channel(s) : 2 channels
Channel positions : Front: L R
Sampling rate : 48.0 KHz
Bit depth : 16 bits
Compression mode : Lossy
Stream size : 130 MiB (3%)
Title : Ukr for Hurtom.com
Language : Ukrainian
Default : No
Forced : No

Audio #3
ID : 4
Format : AC-3
Format/Info : Audio Coding 3
Mode extension : CM (complete main)
Format settings, Endianness : Big
Codec ID : A_AC3
Duration : 1h 34mn
Bit rate mode : Constant
Bit rate : 448 Kbps
Channel(s) : 6 channels
Channel positions : Front: L C R, Side: L R, LFE
Sampling rate : 48.0 KHz
Bit depth : 16 bits
Compression mode : Lossy
Stream size : 304 MiB (7%)
Title : For Hurtom.com
Language : English
Default : No
Forced : No
Скріншоти










Джерело: &
Особиста оцінка: Hе дивився


Срібний реліз (на рейтинг впливає 50% завантаженого)
 Трекер:    Зареєстрований   

Завантажити / скачати фільм українською



відео для новачків



 Зареєстрований:   2013-05-17 20:50
 Розмір:   4.08 GB 
 Оцінка фільму:   10/10 (Голосів: 2)
   
Інші релізи
   Справу зроблено / Made (2001) AVC 2xUkr/Eng bodia87  3 / 0   2.05 GB   2013-05-17 17:56 
   Зроблено! / Made (2001) Ukr/Eng bogdan8249  1 / 0   1.27 GB   2011-09-20 00:18 
leroykendall 
Модератор HD


З нами з: 03.01.11
Востаннє: 20.11.16
Повідомлень: 749

2013-05-17 22:51  
bodia87 написано:
2xUKR/ENG

І в темі і в заголовку 2xUkr/Eng

bodia87 написано:
розмір кадру: 1280 х 720 висота

" висота" не потрібна

Скріншоти повинні бути у png форматі.
bodia87 написано:
Якість:

720p

bratlibo 
Свій


З нами з: 30.05.09
Востаннє: 08.12.16
Повідомлень: 70

2013-05-17 23:02  
Файні актори - Актори: Artisan Entertainment, Cardiff Giant Productions Wide grin Wide grin Wide grin
sergej_kriv 
Новенький


З нами з: 13.02.12
Востаннє: 08.12.16
Повідомлень: 10

2013-05-18 15:55  
не розпещені грошима
Ваш часовий пояс: GMT + 2 Години

Нова тема   Відповісти