Завантажити та скачати торренти українською


Листковий пиріг / Layer Cake (2004) 1080p Ukr/Eng | Sub Eng

Нові коментарі

Нова тема   Відповісти
Автор Повідомлення
Anonymous 







2013-05-16 21:59  
Листковий пиріг / Layer Cake (2004) 1080p Ukr/Eng | Sub Eng



Від продюсерів фільмів "Великий куш" та "Карти, гроші і два стволи"

Альтернативні постери







Жанр: трилер, драма, кримінальний, нео-нуар
Країна: Великобританія



Кінокомпанія: Sony Pictures Classics, Marv Films
Режисер: Меттью Вон / Matthew Vaughn
Актори: Деніел Крейг / Daniel Craig, Том Гарді / Tom Hardy, Сієнна Міллер, Колм Міні, Кеннет Кренем, Джордж Харріс, Джемі Формен, Берн Горман, Темер Хассан, Брінлей Грін, Марсель Юрес та інші.

Сюжет:
Торгувати кокаїном - не квіточки розводити. Бізнес нервовий, що загрожує ранньою смертністю. Тому наркодилер на прізвисько Чотири Ікси, заробивши достатньо неправедних грошей, вирішує більше не спокушати долю і піти на спокій. Однак перед цим йому, як водиться, доведеться надати своєму босу останню послугу: розшукати зниклу доньку його старого приятеля.
Здається, нікчемна справа для знавця лондонського андеграунду?! Якби бідолаха знав, яким божевільним беззаконням і низкою небезпечних непорозумінь обернеться це завдання, в якому «випадково» опинилася замішана партія екстазі на два мільйони, то вийшов би у відставку місяцем раніше! А краще - двома! ...
Цікаві факти

• Слово [email protected] і його похідні вимовляються у фільмі 201 раз.
• Склад, на якому (ближче до кінця фільму) головний герой зустрічався з Едді Темпл (Майкл Гембон) є найбільшим складом подібного типу у всій Британії. Він був майже зруйнований, а більшість ящиків було «домальовані» на комп'ютері.
• За задумом Соні Пікчерс фільм мав закінчуватися поїздкою в захід сонця головного героя (Mr.XXXX) в компанії своєї дівчини. Але Метью Вон зняв альтернативну кінцівку, яка у результаті і увійшла в фільм.
• Воскова голова Джемі Формена (Jamie Foreman), представлена нам у відрізаному вигляді - та ж сама голова, яка використовувалася у фільмі «Єлизавета» (1998), де герой Формена також позбувся своєї голови.

рейтинг MPAA: R - особам до 17 років обов'язкова присутність батьків або дорослого опікуна
Вікова категорія: 16+


Тривалість: 01:45:34
Якість: 1080p
Відео:
кодек:
розмір кадру: 1912 x 796
бітрейт: 8674 кб/с

Аудіо # 1:
мова: українська
переклад: багатоголосий закадровий
кодек: 5.1
бітрейт: 448 кб/с
Інформація про озвучення

Ролі озвучили: Юрій Гребельник (Mr.XXXX / Деніел Крейґ), Олег Стальчук (Clarkie / Том Гарді), Дмитро Гаврилов і Олена Яблучна
Аудіо # 2:
мова: англійська
переклад: оригінал
кодек: 5.1
бітрейт: 640 кб/с

Субтитри:
мова: англійська
тип: програмні (м'які)
формат: *.srt

Збережено оригінальні розділи, як на Blu-ray.
MediaInfo та
[info]: frame I:1107 Avg QP:16.57 size:188611
[info]: frame P:23270 Avg QP:19.21 size: 82801
[info]: frame B:127502 Avg QP:21.88 size: 36880


General
Unique ID : 204946994068622651619561671425224143754 (0x9A2F5AF4367903BA8EA30C8DA2A4F38A)
Complete name : Layer.Cake.2004..1080p.Ukr.Eng.mkv
Format : Matroska
Format version : Version 4 / Version 2
File size : 7.17 GiB
Duration : 1h 45mn
Overall bit rate mode : Variable
Overall bit rate : 9 724 Kbps
Movie name : Листковий пиріг / Layer Cake / Слоеный торт (2004)
Encoded date : UTC 2013-05-16 18:14:41
Writing application : mkvmerge v6.2.0 ('Promised Land') built on Apr 28 2013 12:22:01
Writing library : libebml v1.3.0 + libmatroska v1.4.0

Video
ID : 1
Format : AVC
Format/Info : Advanced Video Codec
Format profile : [email protected]
Format settings, CABAC : Yes
Format settings, ReFrames : 5 frames
Codec ID : V_MPEG4/ISO/AVC
Duration : 1h 45mn
Bit rate mode : Variable
Bit rate : 8 674 Kbps
Maximum bit rate : 30.0 Mbps
Width : 1 912 pixels
Height : 796 pixels
Display aspect ratio : 2.40:1
Frame rate mode : Constant
Frame rate : 23.976 fps
Color space : YUV
Chroma subsampling : 4:2:0
Bit depth : 8 bits
Scan type : Progressive
Bits/(Pixel*Frame) : 0.238
Stream size : 6.23 GiB (87%)
Title : Листковий пиріг / Layer Cake / Слоеный торт (2004) [FREEISLAND-mudry]
Writing library : core 132 r2310 76a5c3a
Encoding settings : cabac=1 / ref=5 / deblock=1:-3:-3 / analyse=0x3:0x133 / me=umh / subme=11 / psy=1 / psy_rd=1.00:0.00 / mixed_ref=1 / me_range=32 / chroma_me=1 / trellis=2 / 8x8dct=1 / cqm=0 / deadzone=21,11 / fast_pskip=0 / chroma_qp_offset=-2 / threads=9 / lookahead_threads=1 / sliced_threads=0 / nr=0 / decimate=1 / interlaced=0 / bluray_compat=0 / constrained_intra=0 / bframes=8 / b_pyramid=2 / b_adapt=2 / b_bias=30 / direct=1 / weightb=1 / open_gop=0 / weightp=2 / keyint=230 / keyint_min=23 / scenecut=40 / intra_refresh=0 / rc_lookahead=40 / rc=2pass / mbtree=0 / bitrate=8674 / ratetol=2.0 / qcomp=1.00 / qpmin=0 / qpmax=51 / qpstep=4 / cplxblur=20.0 / qblur=0.5 / vbv_maxrate=30000 / vbv_bufsize=62500 / nal_hrd=vbr / ip_ratio=1.40 / pb_ratio=1.30 / aq=1:1.00
Language : English
Default : Yes
Forced : No
Color primaries : BT.709
Transfer characteristics : BT.709
Matrix coefficients : BT.709

Audio #1
ID : 2
Format : AC-3
Format/Info : Audio Coding 3
Mode extension : CM (complete main)
Format settings, Endianness : Big
Codec ID : A_AC3
Duration : 1h 45mn
Bit rate mode : Constant
Bit rate : 448 Kbps
Channel(s) : 6 channels
Channel positions : Front: L C R, Side: L R, LFE
Sampling rate : 48.0 KHz
Bit depth : 16 bits
Compression mode : Lossy
Delay relative to video : 21s 983ms
Stream size : 338 MiB (5%)
Title : MVO [TakTrebaProduction-NTN] 5.1 448 Kbps [Hurom-MAKAPOHHIK]
Language : Ukrainian
Default : Yes
Forced : No

Audio #2
ID : 3
Format : AC-3
Format/Info : Audio Coding 3
Mode extension : CM (complete main)
Format settings, Endianness : Big
Codec ID : A_AC3
Duration : 1h 45mn
Bit rate mode : Constant
Bit rate : 640 Kbps
Channel(s) : 6 channels
Channel positions : Front: L C R, Side: L R, LFE
Sampling rate : 48.0 KHz
Bit depth : 16 bits
Compression mode : Lossy
Stream size : 483 MiB (7%)
Title : Original 5.1 640 Kbps
Language : English
Default : No
Forced : No

Text
ID : 4
Format : UTF-8
Codec ID : S_TEXT/UTF8
Codec ID/Info : UTF-8 Plain Text
Title : Eng full
Language : English
Default : No
Forced : No

Menu
00:00:00.000 : en:Chapter 01
00:15:34.516 : en:Chapter 02
00:22:21.715 : en:Chapter 03
00:29:57.212 : en:Chapter 04
00:33:15.326 : en:Chapter 05
00:37:27.828 : en:Chapter 06
00:42:35.844 : en:Chapter 07
00:46:04.678 : en:Chapter 08
00:50:17.556 : en:Chapter 09
00:59:10.088 : en:Chapter 10
01:04:54.640 : en:Chapter 11
01:12:06.739 : en:Chapter 12
01:17:17.633 : en:Chapter 13
01:21:43.899 : en:Chapter 14
01:28:46.029 : en:Chapter 15
01:31:40.077 : en:Chapter 16




Джерела та подяки: ріп відео, оригінальні звук та субтитри - mudry (FREEISLAND); українська доріжка - MAKAPOHHIK, українські постери - AndriyUA, bogdan8249 (всі - Гуртом).

Особиста оцінка: 8


ЗАЛИШАЙТЕСЬ ЯКОМОГА ДОВШЕ НА РОЗДАЧІ, НЕ ОБМЕЖУЙТЕ ШВИДКІСТЬ ВІДДАЧІ!

СКАЧАВ САМ - ДАЙ СКАЧАТИ ІНШИМ


Срібний реліз (на рейтинг впливає 50% завантаженого)
 Трекер:    Зареєстрований   

Завантажити / скачати фільм українською



відео для новачків



 Зареєстрований:   2013-05-16 21:59
 Розмір:   7.17 GB 
 Оцінка фільму:   6.4/10 (Голосів: 26)
   
Інші релізи
   Листковий пиріг / Layer Cake (2004) MAKAPOHHIK  3 / 0   1.85 GB   2009-12-03 11:31 
Jack_Daniels 
VIP


З нами з: 30.07.10
Востаннє: 09.12.16
Повідомлень: 298

2013-05-17 17:56  
Мені фільм дуже подобається, дивився вже десь 4 рази...
nejaka 
Свій


З нами з: 01.02.12
Востаннє: 17.11.16
Повідомлень: 72

2013-05-17 21:49  
фільм шикарний)) нещодавно дивилася!) Запам"ятався!!!))) ммм...)
Genek 
Свій


З нами з: 16.10.10
Востаннє: 10.12.16
Повідомлень: 69

2013-05-18 13:59  
Цей фільм - щасливий білет Деніела Крейга. Фільм класний.
TUB0RG 
Новенький


З нами з: 15.03.12
Востаннє: 09.12.16
Повідомлень: 6

2015-02-15 14:47  
я не розумію чому сake перекладається як пиріг,якщо пиріг це pie?Чи в українській мові немає слова торт?
Ваш часовий пояс: GMT + 2 Години

Нова тема   Відповісти