Завантажити та скачати торренти українською


Цвітень - Дискографія (4 альбоми) (2005-2008) [APE] | Folk

Нові коментарі

Нова тема   Відповісти
Автор Повідомлення
civ 
VIP


З нами з: 16.02.11
Востаннє: 10.12.16
Повідомлень: 429

2013-05-16 18:15  
Цвітень - Дискографія (4 альбоми) (2005-2008) [APE] | Folk

Цвітень - Дискографія (4 альбоми) (2005-2008) [APE] | Folk


Стиль: Folk
Країна, місто: Україна, Київ
Сайти: Офіційний сайт
Виконавці:
Дитячий фольклорний ансамбль «Цвітень»
Національний заслужений академічний народний український хор ім. Г.Верьовки
Альбоми:
    2005 - Колядки і щедрівки


    Видавець: Саме Так!
    Пісні:
      01. Ой ведення народження
      02. Чи хазяїн спить, чи лежить?
      03. Возстаніте от сна!
      04. Го-го-го коза
      05. Вертеп
      06. Подь, баранку
      07. Пречистая мати
      08. Надворі чорна хмара
      09. Гой дай Божи
      10. Всі язици восплещіте
      11. Де ти Ілля ходиш
      12. Дівка Марусечка
      13. Позаквитали вишні-черешні
      14. По горі, горі пави ходили
      15. Гой, дай, Божи
      16. Розуйгралися буйні вітрови
      17. Пасли увці
      18. Ой попід гору
      19. Ой рано-рано
      20. Коло кринички
      21. Чи вдома, вдома
      22. Радуйтеся, пастирі
      23. Що в полі, полі
      24. Василева мати
      25. Що то за звіздар
      26. По горі пави
      27. Ой пряла Анна
      28. Попід горі
      29. Чаша вина

    Тривалість: 00:52:28
    Мова: українська
    Аудіо-кодек: APE
    Бітрейт: 715 кб/с
    Джерело: ріп Sehrg-Gut з власного диску
    EAC log

    Exact Audio Copy V1.0 beta 3 from 29. August 2011

    Отчёт EAC об извлечении, выполненном 7. мая 2013, 0:34

    Цвітень / Колядки і щедрівки

    Дисковод: TSSTcorpCDDVDW TS-L633A Adapter: 0 ID: 1

    Режим чтения : Достоверность
    Использование точного потока : Да
    Отключение кэша аудио : Да
    Использование указателей C2 : Нет

    Коррекция смещения при чтении : 6
    Способность читать области Lead-in и Lead-out : Нет
    Заполнение пропущенных сэмплов тишиной : Да
    Удаление блоков с тишиной в начале и конце : Нет
    При вычислениях CRC использовались нулевые сэмплы : Да
    Интерфейс : Встроенный Win32-интерфейс для Win NT/2000

    Выходной формат : Внутренние WAV-операции
    Формат сэмплов : 44.100 Гц; 16 бит; стерео

    TOC извлечённого CD

    Трек | Старт | Длительность | Начальный сектор | Конечный сектор
    ---------------------------------------------------------------------
    1 | 0:00.00 | 1:11.67 | 0 | 5391
    2 | 1:11.67 | 1:46.07 | 5392 | 13348
    3 | 2:57.74 | 3:34.21 | 13349 | 29419
    4 | 6:32.20 | 2:16.09 | 29420 | 39628
    5 | 8:48.29 | 8:55.62 | 39629 | 79815
    6 | 17:44.16 | 0:41.71 | 79816 | 82961
    7 | 18:26.12 | 0:20.17 | 82962 | 84478
    8 | 18:46.29 | 1:03.15 | 84479 | 89218
    9 | 19:49.44 | 1:48.60 | 89219 | 97378
    10 | 21:38.29 | 1:55.01 | 97379 | 106004
    11 | 23:33.30 | 0:46.25 | 106005 | 109479
    12 | 24:19.55 | 0:47.36 | 109480 | 113040
    13 | 25:07.16 | 1:02.70 | 113041 | 117760
    14 | 26:10.11 | 1:21.24 | 117761 | 123859
    15 | 27:31.35 | 2:50.43 | 123860 | 136652
    16 | 30:22.03 | 1:31.64 | 136653 | 143541
    17 | 31:53.67 | 2:42.30 | 143542 | 155721
    18 | 34:36.22 | 2:24.18 | 155722 | 166539
    19 | 37:00.40 | 1:28.35 | 166540 | 173174
    20 | 38:29.00 | 1:06.35 | 173175 | 178159
    21 | 39:35.35 | 2:12.38 | 178160 | 188097
    22 | 41:47.73 | 0:56.04 | 188098 | 192301
    23 | 42:44.02 | 2:32.60 | 192302 | 203761
    24 | 45:16.62 | 1:51.32 | 203762 | 212118
    25 | 47:08.19 | 0:47.16 | 212119 | 215659
    26 | 47:55.35 | 0:55.33 | 215660 | 219817
    27 | 48:50.68 | 1:21.56 | 219818 | 225948
    28 | 50:12.49 | 1:33.28 | 225949 | 232951
    29 | 51:46.02 | 0:41.47 | 232952 | 236073

    Характеристики диапазона извлечения и сообщения об ошибках

    Выбранный диапазон

    Имя файла C:\Users\toshiba\Downloads\RelizyZ11\Видуб\Цвітень - Колядки і щедрівки.wav

    Пиковый уровень 100.0 %
    Скорость извлечения 3.4 X
    Качество диапазона 100.0 %
    CRC копии 2988F040
    Копирование... OK

    Ошибок не произошло

    AccurateRip: сводка

    Трек 1 отсутствует в базе данных
    Трек 2 отсутствует в базе данных
    Трек 3 отсутствует в базе данных
    Трек 4 отсутствует в базе данных
    Трек 5 отсутствует в базе данных
    Трек 6 отсутствует в базе данных
    Трек 7 отсутствует в базе данных
    Трек 8 отсутствует в базе данных
    Трек 9 отсутствует в базе данных
    Трек 10 отсутствует в базе данных
    Трек 11 отсутствует в базе данных
    Трек 12 отсутствует в базе данных
    Трек 13 отсутствует в базе данных
    Трек 14 отсутствует в базе данных
    Трек 15 отсутствует в базе данных
    Трек 16 отсутствует в базе данных
    Трек 17 отсутствует в базе данных
    Трек 18 отсутствует в базе данных
    Трек 19 отсутствует в базе данных
    Трек 20 отсутствует в базе данных
    Трек 21 отсутствует в базе данных
    Трек 22 отсутствует в базе данных
    Трек 23 отсутствует в базе данных
    Трек 24 отсутствует в базе данных
    Трек 25 отсутствует в базе данных
    Трек 26 отсутствует в базе данных
    Трек 27 отсутствует в базе данных
    Трек 28 отсутствует в базе данных
    Трек 29 отсутствует в базе данных

    Ни одного трека нет в базе AccurateRip

    Конец отчёта

    ---- CUETools DB Plugin V2.1.3

    [CTDB TOCID: nkqtUicOxWsvidO0maNVdqFOy8E-] disk not present in database, Submit result: nkqtUicOxWsvidO0maNVdqFOy8E- has been uploaded
    Audiochecker

    fooCDtect - foobar2000 + auCDtect, baralgin.

    auCDtect: CD records authenticity detector, version 0.8.2
    Copyright (c) 2004 Oleg Berngardt. All rights reserved.
    Copyright (c) 2004 Alexander Djourik. All rights reserved.

    mode: 0

    ===========================================
    Track: 01. Ой ведення народження
    Quality: CDDA 100%
    ===========================================
    Track: 02. Чи хазяїн спить, чи лежить
    Quality: CDDA 100%
    ===========================================
    Track: 03. Возстаніте от сна!
    Quality: CDDA 100%
    ===========================================
    Track: 04. Го-го-го коза
    Quality: CDDA 100%
    ===========================================
    Track: 05. Вертеп
    Quality: CDDA 100%
    ===========================================
    Track: 06. Подь, баранку
    Quality: CDDA 99%
    ===========================================
    Track: 07. Пречистая мати
    Quality: CDDA 100%
    ===========================================
    Track: 08. Надворі чорна хмара
    Quality: CDDA 100%
    ===========================================
    Track: 09. Гой дай Божи
    Quality: CDDA 100%
    ===========================================
    Track: 10. Всі язици восплещіте
    Quality: CDDA 100%
    ===========================================
    Track: 11. Де ти Ілля ходиш
    Quality: CDDA 100%
    ===========================================
    Track: 12. Дівка Марусечка
    Quality: CDDA 100%
    ===========================================
    Track: 13. Позаквитали вишні-черешні
    Quality: CDDA 100%
    ===========================================
    Track: 14. По горі, горі пави ходили
    Quality: CDDA 99%
    ===========================================
    Track: 15. Гой, дай, Божи
    Quality: CDDA 100%
    ===========================================
    Track: 16. Розуйгралися буйні вітрови
    Quality: CDDA 86%
    ===========================================
    Track: 17. Пасли увці
    Quality: CDDA 92%
    ===========================================
    Track: 18. Ой попід гору
    Quality: CDDA 43%
    ===========================================
    Track: 19. Ой рано-рано
    Quality: CDDA 76%
    ===========================================
    Track: 20. Коло кринички
    Quality: CDDA 58%
    ===========================================
    Track: 21. Чи вдома, вдома
    Quality: CDDA 42%
    ===========================================
    Track: 22. Радуйтеся, пастирі
    Quality: MPEG 95%
    ===========================================
    Track: 23. Що в полі, полі
    Quality: CDDA 43%
    ===========================================
    Track: 24. Василева мати
    Quality: CDDA 92%
    ===========================================
    Track: 25. Що то за звіздар
    Quality: MPEG 90%
    ===========================================
    Track: 26. По горі пави
    Quality: MPEG 80%
    ===========================================
    Track: 27. Ой пряла Анна
    Quality: CDDA 58%
    ===========================================
    Track: 28. Попід горі
    Quality: CDDA 43%
    ===========================================
    Track: 29. Чаша вина
    Quality: CDDA 100%
    ===========================================
    Додаткова інформація:
    В цьому проекті прийняло участь два самостійних, але дуже споріднених колективи. Один – відомий, без перебільшення, на весь світ Національний заслужений академічний народний український хор ім. Г. Верьовки. А другий – ще не такий відомий, але не менш талановитий та професійний хор "Цвітень". Власне, другий – це дитячий фольклорний ансамбль, який виник як продовження і альтернатива першого. В загальному смислі – батьки і діти... Отже, нічого дивного немає в спільній участі цих двох колективів у запису. Тим більше, що і нагода важлива – Різдво, найбільш родинне свято із усіх. Власне, така взаємодопомога дала можливість записати не просто альбом пісень, а дещо більше. Ви почуєте тут майже спектакль – фрагменти різдвяно-колядного обряду представлено в особах, з віршами, діалогами, характерами. Картина виникає дуже яскраво, об’ємно – ловиш себе на відчутті присутності. Ну і сам спів – як завжди, на найвищому рівні, справжній клас. Додавати більш нема чого – потрібно слухати. І отримувати велике задоволення – неодмінно.

    Умка
    2006 - Українські народні автентичні пісні



    Видавець: Rostok Records
    Пісні:
      01. Равлику-Павлику; Печу-печу хлібчик; Подоляночка; Зайчик
      02. Полтавські перегуки
      03. Весільна (Берестейська)
      04. Весільна (Полтавська); Коло колодязя
      05. Ой, спозволь Боже
      06. Купальська
      07. Ой, на горі вогонь
      08. Ой, ходила та дівчина
      09. Ой, у лісі
      10. Кривий танець
      11. Різдвяний канон
      12. Ой, вінку мій, вінку
      13. Чаша вина
      14. Ой ти, хмелю
      15. Розуйгралися буйні вітрови
      16. Пасли увці пастирі
      17. Ой, попід гору
      18. Ой, гороше, гороше
      19. Ой, скакали дикі кози
      20. Ой, рано, рано куроньки пили
      21. Коло кринички
      22. Ягіл ягілочка
      23. Дай ішли дівки
      24. Чи вдома, вдома
      25. Назва пісні невідома
      26. Радуйтеся пастирі
      27. Василева мати
      28. Що тото за звізда
      29. Ой, ясно, ясно
      30. По горі, горі
      31. Що в полі, полі
      32. Ой пряла Анна
      33. Настінко, сестричко
      34. Попід горі пави літали
      35. Ой, ходив жук по жучині
      36. Гойди, Марусю
      37. Ой, у лузі, лузі…
      38. Страждальна мати
      39. Ти, козачку
      40. Я в вишневім садочку
      41. Чорнушко, душко

    Тривалість: 01:03:46
    Мова: українська
    Аудіо-кодек: APE
    Бітрейт: 783 кб/с
    Джерело: ріп Sehrg-Gut з власного диску
    EAC log

    Exact Audio Copy V1.0 beta 3 from 29. August 2011

    Отчёт EAC об извлечении, выполненном 6. мая 2013, 22:11

    Цвітень / Українські народні автентичні пісні

    Дисковод: TSSTcorpCDDVDW TS-L633A Adapter: 0 ID: 1

    Режим чтения : Достоверность
    Использование точного потока : Да
    Отключение кэша аудио : Да
    Использование указателей C2 : Нет

    Коррекция смещения при чтении : 6
    Способность читать области Lead-in и Lead-out : Нет
    Заполнение пропущенных сэмплов тишиной : Да
    Удаление блоков с тишиной в начале и конце : Нет
    При вычислениях CRC использовались нулевые сэмплы : Да
    Интерфейс : Встроенный Win32-интерфейс для Win NT/2000

    Выходной формат : Внутренние WAV-операции
    Формат сэмплов : 44.100 Гц; 16 бит; стерео

    TOC извлечённого CD

    Трек | Старт | Длительность | Начальный сектор | Конечный сектор
    ---------------------------------------------------------------------
    1 | 0:00.00 | 5:02.27 | 0 | 22676
    2 | 5:02.27 | 2:15.62 | 22677 | 32863
    3 | 7:18.14 | 1:41.70 | 32864 | 40508
    4 | 9:00.09 | 2:31.19 | 40509 | 51852
    5 | 11:31.28 | 2:20.43 | 51853 | 62395
    6 | 13:51.71 | 0:53.06 | 62396 | 66376
    7 | 14:45.02 | 1:09.25 | 66377 | 71576
    8 | 15:54.27 | 1:32.07 | 71577 | 78483
    9 | 17:26.34 | 1:30.38 | 78484 | 85271
    10 | 18:56.72 | 1:02.20 | 85272 | 89941
    11 | 19:59.17 | 0:44.40 | 89942 | 93281
    12 | 20:43.57 | 0:41.14 | 93282 | 96370
    13 | 21:24.71 | 0:42.58 | 96371 | 99578
    14 | 22:07.54 | 0:39.46 | 99579 | 102549
    15 | 22:47.25 | 1:34.17 | 102550 | 109616
    16 | 24:21.42 | 2:44.12 | 109617 | 121928
    17 | 27:05.54 | 2:26.46 | 121929 | 132924
    18 | 29:32.25 | 0:29.05 | 132925 | 135104
    19 | 30:01.30 | 0:20.18 | 135105 | 136622
    20 | 30:21.48 | 1:30.66 | 136623 | 143438
    21 | 31:52.39 | 1:07.56 | 143439 | 148519
    22 | 33:00.20 | 0:40.02 | 148520 | 151521
    23 | 33:40.22 | 2:01.40 | 151522 | 160636
    24 | 35:41.62 | 2:13.73 | 160637 | 170684
    25 | 37:55.60 | 1:13.52 | 170685 | 176211
    26 | 39:09.37 | 0:21.41 | 176212 | 177827
    27 | 39:31.03 | 1:54.07 | 177828 | 186384
    28 | 41:25.10 | 0:49.62 | 186385 | 190121
    29 | 42:14.72 | 1:11.35 | 190122 | 195481
    30 | 43:26.32 | 0:56.59 | 195482 | 199740
    31 | 44:23.16 | 2:34.66 | 199741 | 211356
    32 | 46:58.07 | 1:25.09 | 211357 | 217740
    33 | 48:23.16 | 1:27.12 | 217741 | 224277
    34 | 49:50.28 | 1:35.04 | 224278 | 231406
    35 | 51:25.32 | 1:05.60 | 231407 | 236341
    36 | 52:31.17 | 0:44.47 | 236342 | 239688
    37 | 53:15.64 | 1:22.32 | 239689 | 245870
    38 | 54:38.21 | 3:28.07 | 245871 | 261477
    39 | 58:06.28 | 1:59.17 | 261478 | 270419
    40 | 60:05.45 | 1:26.66 | 270420 | 276935
    41 | 61:32.36 | 2:14.01 | 276936 | 286986

    Характеристики диапазона извлечения и сообщения об ошибках

    Выбранный диапазон

    Имя файла C:\Users\toshiba\Downloads\RelizyZ11\Видуб\Цвітень - Українські народні автентичні пісні\Цвітень - Українські народні автентичні пісні.wav

    Пиковый уровень 95.7 %
    Скорость извлечения 3.6 X
    Качество диапазона 100.0 %
    CRC копии 0E08B216
    Копирование... OK

    Ошибок не произошло

    AccurateRip: сводка

    Трек 1 отсутствует в базе данных
    Трек 2 отсутствует в базе данных
    Трек 3 отсутствует в базе данных
    Трек 4 отсутствует в базе данных
    Трек 5 отсутствует в базе данных
    Трек 6 отсутствует в базе данных
    Трек 7 отсутствует в базе данных
    Трек 8 отсутствует в базе данных
    Трек 9 отсутствует в базе данных
    Трек 10 отсутствует в базе данных
    Трек 11 отсутствует в базе данных
    Трек 12 отсутствует в базе данных
    Трек 13 отсутствует в базе данных
    Трек 14 отсутствует в базе данных
    Трек 15 отсутствует в базе данных
    Трек 16 отсутствует в базе данных
    Трек 17 отсутствует в базе данных
    Трек 18 отсутствует в базе данных
    Трек 19 отсутствует в базе данных
    Трек 20 отсутствует в базе данных
    Трек 21 отсутствует в базе данных
    Трек 22 отсутствует в базе данных
    Трек 23 отсутствует в базе данных
    Трек 24 отсутствует в базе данных
    Трек 25 отсутствует в базе данных
    Трек 26 отсутствует в базе данных
    Трек 27 отсутствует в базе данных
    Трек 28 отсутствует в базе данных
    Трек 29 отсутствует в базе данных
    Трек 30 отсутствует в базе данных
    Трек 31 отсутствует в базе данных
    Трек 32 отсутствует в базе данных
    Трек 33 отсутствует в базе данных
    Трек 34 отсутствует в базе данных
    Трек 35 отсутствует в базе данных
    Трек 36 отсутствует в базе данных
    Трек 37 отсутствует в базе данных
    Трек 38 отсутствует в базе данных
    Трек 39 отсутствует в базе данных
    Трек 40 отсутствует в базе данных
    Трек 41 отсутствует в базе данных

    Ни одного трека нет в базе AccurateRip

    Конец отчёта

    ---- CUETools DB Plugin V2.1.3

    [CTDB TOCID: m.cVEL6.WZpHxg2TeNU3wPf07XI-] disk not present in database, Submit result: m.cVEL6.WZpHxg2TeNU3wPf07XI- has been uploaded
    Audiochecker

    fooCDtect - foobar2000 + auCDtect, baralgin.

    auCDtect: CD records authenticity detector, version 0.8.2
    Copyright (c) 2004 Oleg Berngardt. All rights reserved.
    Copyright (c) 2004 Alexander Djourik. All rights reserved.

    mode: 0

    ===========================================
    Track: 01. Равлику-Павлику; Печу-печу хлібчик; Подоляночка; Зайчик
    Quality: CDDA 100%
    ===========================================
    Track: 02. Полтавські перегуки
    Quality: CDDA 100%
    ===========================================
    Track: 03. Весільна (Берестейська)
    Quality: CDDA 100%
    ===========================================
    Track: 04. Весільна (Полтавська); Коло колодязя
    Quality: CDDA 100%
    ===========================================
    Track: 05. Ой, спозволь Боже
    Quality: CDDA 100%
    ===========================================
    Track: 06. Купальська
    Quality: CDDA 100%
    ===========================================
    Track: 07. Ой, на горі вогонь
    Quality: CDDA 100%
    ===========================================
    Track: 08. Ой, ходила та дівчина
    Quality: CDDA 100%
    ===========================================
    Track: 09. Ой, у лісі
    Quality: CDDA 100%
    ===========================================
    Track: 10. Кривий танець
    Quality: CDDA 99%
    ===========================================
    Track: 11. Різдвяний канон
    Quality: CDDA 100%
    ===========================================
    Track: 12. Ой, вінку мій, вінку
    Quality: CDDA 100%
    ===========================================
    Track: 13. Чаша вина
    Quality: CDDA 100%
    ===========================================
    Track: 14. Ой ти, хмелю
    Quality: CDDA 100%
    ===========================================
    Track: 15. Розуйгралися буйні вітрови
    Quality: CDDA 100%
    ===========================================
    Track: 16. Пасли увці пастирі
    Quality: CDDA 100%
    ===========================================
    Track: 17. Ой, попід гору
    Quality: CDDA 100%
    ===========================================
    Track: 18. Ой, гороше, гороше
    Quality: CDDA 100%
    ===========================================
    Track: 19. Ой, скакали дикі кози
    Quality: CDDA 100%
    ===========================================
    Track: 20. Ой, рано, рано куроньки пили
    Quality: CDDA 100%
    ===========================================
    Track: 21. Коло кринички
    Quality: CDDA 100%
    ===========================================
    Track: 22. Ягіл ягілочка
    Quality: CDDA 100%
    ===========================================
    Track: 23. Дай ішли дівки
    Quality: CDDA 100%
    ===========================================
    Track: 24. Чи вдома, вдома
    Quality: CDDA 100%
    ===========================================
    Track: 25. Назва пісні невідома
    Quality: CDDA 100%
    ===========================================
    Track: 26. Радуйтеся пастирі
    Quality: CDDA 100%
    ===========================================
    Track: 27. Василева мати
    Quality: CDDA 100%
    ===========================================
    Track: 28. Що тото за звізда
    Quality: CDDA 100%
    ===========================================
    Track: 29. Ой, ясно, ясно
    Quality: CDDA 100%
    ===========================================
    Track: 30. По горі, горі
    Quality: CDDA 100%
    ===========================================
    Track: 31. Що в полі, полі
    Quality: CDDA 100%
    ===========================================
    Track: 32. Ой пряла Анна
    Quality: CDDA 100%
    ===========================================
    Track: 33. Настінко, сестричко
    Quality: CDDA 100%
    ===========================================
    Track: 34. Попід горі пави літали
    Quality: CDDA 100%
    ===========================================
    Track: 35. Ой, ходив жук по жучині
    Quality: CDDA 100%
    ===========================================
    Track: 36. Гойди, Марусю
    Quality: CDDA 100%
    ===========================================
    Track: 37. Ой, у лузі, лузі...
    Quality: CDDA 100%
    ===========================================
    Track: 38. Страждальна мати
    Quality: CDDA 100%
    ===========================================
    Track: 39. Ти, козачку
    Quality: CDDA 99%
    ===========================================
    Track: 40. Я в вишневім садочку
    Quality: CDDA 99%
    ===========================================
    Track: 41. Чорнушко, душко
    Quality: CDDA 100%
    ===========================================
    Додаткова інформація:
    "Цвітень" – дитячий фольклорний ансамбль при Українському народному хорі ім. Г. Верьовки. Він був першим у Києві, тож сьогодні ансамблеві вже 20 років – а це, як і ім’я Григорія Верьовки, одразу дещо каже про якість. Втім, ім’я безпосереднього керівника теж нам добре відоме – це Марія Пилипчак. Чудовий альбом автентичних колискових у її виконанні Ви вже могли бачити у нас раніше – як, власне, і зараз. Ну а "Цвітень" має одразу кілька козирних карт. Перша – те, що ансамбль є дитячо-юнацьким. А значить – вирощує майбутнє нашої естради. Ви почуєте – тут співають великі надії. Крім того, дитячі хори завжди викликали непідробний інтерес у публіки. Далі – те, що ансамбль практикує виконання пісенного матеріалу без додаткової обробки. Тобто, виконання максимально наближене до автентичного – а це і нелегко, і цікаво. Ну а останній козир – безумовно, професійність, виконавська майстерність цього колективу. І знаєте, не всякий "дорослий" ансамбль здатен презентувати подібну високу якість, не кажучи вже про ансамблі дитячі.

    Умка
    2007 - Збірка автентичних народних пісень. Випуск 2



    Видавець: Rostok Records
    Пісні:
      01. Ойра вінницька
      02. Ой на горі вогонь
      03. Ой що ж то за шум
      04. Там за млином
      05. Да посію мак
      06. Ходив жуч
      07. Весняночко-паняночко
      08. Ой попід гору
      09. Ой чому ти не танцюєш
      10. Ходить качур
      11. Ми голубочку зловили
      12. Весільні
      13. Ой горе тій чайці
      14. Плескан
      15. Зайчику, мій братчику
      16. Ой на горі жито, жито
      17. Чи хазяїн спить
      18. Го-го-коза
      19. Подь, баранку, додому
      20. Чого, Галю, ни гуляєш
      21. Маланка ходила
      22. Добрий вечір
      23. Радуйтеся, пастирі
      24. Щадрий, щедрівочка
      25. Ти, козачку, шпачку
      26. Надворі чорна хмара
      27. Ой на дворі трава мурава
      28. Ой у лісі на орісі
      29. Ой ведення, народження
      30. Ой ходить сон
      31. Страждальная мати
      32. Повішу колиску
      33. Чорнушко-душко
      34. Ходив жучок
      35. Чорноморець, матінко
      36. Ой є в саду, садочку
      37. На петрушку копала
      38. Живітє герої

    Тривалість: 00:59:22
    Мова: українська
    Аудіо-кодек: APE
    Бітрейт: 736 кб/с
    Джерело: ріп Sehrg-Gut з власного диску
    EAC log

    Exact Audio Copy V1.0 beta 3 from 29. August 2011

    Отчёт EAC об извлечении, выполненном 6. мая 2013, 23:32

    Цвітень / Збірка автентичних народних пісень. Випуск 2

    Дисковод: TSSTcorpCDDVDW TS-L633A Adapter: 0 ID: 1

    Режим чтения : Достоверность
    Использование точного потока : Да
    Отключение кэша аудио : Да
    Использование указателей C2 : Нет

    Коррекция смещения при чтении : 6
    Способность читать области Lead-in и Lead-out : Нет
    Заполнение пропущенных сэмплов тишиной : Да
    Удаление блоков с тишиной в начале и конце : Нет
    При вычислениях CRC использовались нулевые сэмплы : Да
    Интерфейс : Встроенный Win32-интерфейс для Win NT/2000

    Выходной формат : Внутренние WAV-операции
    Формат сэмплов : 44.100 Гц; 16 бит; стерео

    TOC извлечённого CD

    Трек | Старт | Длительность | Начальный сектор | Конечный сектор
    ---------------------------------------------------------------------
    1 | 0:00.00 | 2:06.13 | 0 | 9462
    2 | 2:06.13 | 1:06.55 | 9463 | 14467
    3 | 3:12.68 | 1:46.38 | 14468 | 22455
    4 | 4:59.31 | 1:48.31 | 22456 | 30586
    5 | 6:47.62 | 1:03.64 | 30587 | 35375
    6 | 7:51.51 | 2:35.00 | 35376 | 47000
    7 | 10:26.51 | 1:21.03 | 47001 | 53078
    8 | 11:47.54 | 2:25.05 | 53079 | 63958
    9 | 14:12.59 | 1:23.50 | 63959 | 70233
    10 | 15:36.34 | 0:46.71 | 70234 | 73754
    11 | 16:23.30 | 1:15.16 | 73755 | 79395
    12 | 17:38.46 | 1:40.31 | 79396 | 86926
    13 | 19:19.02 | 2:39.50 | 86927 | 98901
    14 | 21:58.52 | 2:40.37 | 98902 | 110938
    15 | 24:39.14 | 1:02.47 | 110939 | 115635
    16 | 25:41.61 | 1:48.52 | 115636 | 123787
    17 | 27:30.38 | 1:45.26 | 123788 | 131688
    18 | 29:15.64 | 2:15.17 | 131689 | 141830
    19 | 31:31.06 | 0:43.32 | 141831 | 145087
    20 | 32:14.38 | 1:11.28 | 145088 | 150440
    21 | 33:25.66 | 0:23.57 | 150441 | 152222
    22 | 33:49.48 | 0:25.49 | 152223 | 154146
    23 | 34:15.22 | 0:56.05 | 154147 | 158351
    24 | 35:11.27 | 0:41.51 | 158352 | 161477
    25 | 35:53.03 | 1:38.37 | 161478 | 168864
    26 | 37:31.40 | 1:03.49 | 168865 | 173638
    27 | 38:35.14 | 1:07.34 | 173639 | 178697
    28 | 39:42.48 | 1:28.45 | 178698 | 185342
    29 | 41:11.18 | 1:13.72 | 185343 | 190889
    30 | 42:25.15 | 1:34.34 | 190890 | 197973
    31 | 43:59.49 | 3:26.39 | 197974 | 213462
    32 | 47:26.13 | 1:28.18 | 213463 | 220080
    33 | 48:54.31 | 2:21.16 | 220081 | 230671
    34 | 51:15.47 | 1:30.59 | 230672 | 237480
    35 | 52:46.31 | 2:10.23 | 237481 | 247253
    36 | 54:56.54 | 2:30.17 | 247254 | 258520
    37 | 57:26.71 | 1:13.32 | 258521 | 264027
    38 | 58:40.28 | 0:41.57 | 264028 | 267159

    Характеристики диапазона извлечения и сообщения об ошибках

    Выбранный диапазон

    Имя файла C:\Users\toshiba\Downloads\RelizyZ11\Видуб\Цвітень - Збірка автентичних народних пісень. Випуск 2\Цвітень - Збірка автентичних народних пісень. Випуск 2.wav

    Пиковый уровень 100.0 %
    Скорость извлечения 3.5 X
    Качество диапазона 100.0 %
    CRC копии 3F83BF16
    Копирование... OK

    Ошибок не произошло

    AccurateRip: сводка

    Трек 1 отсутствует в базе данных
    Трек 2 отсутствует в базе данных
    Трек 3 отсутствует в базе данных
    Трек 4 отсутствует в базе данных
    Трек 5 отсутствует в базе данных
    Трек 6 отсутствует в базе данных
    Трек 7 отсутствует в базе данных
    Трек 8 отсутствует в базе данных
    Трек 9 отсутствует в базе данных
    Трек 10 отсутствует в базе данных
    Трек 11 отсутствует в базе данных
    Трек 12 отсутствует в базе данных
    Трек 13 отсутствует в базе данных
    Трек 14 отсутствует в базе данных
    Трек 15 отсутствует в базе данных
    Трек 16 отсутствует в базе данных
    Трек 17 отсутствует в базе данных
    Трек 18 отсутствует в базе данных
    Трек 19 отсутствует в базе данных
    Трек 20 отсутствует в базе данных
    Трек 21 отсутствует в базе данных
    Трек 22 отсутствует в базе данных
    Трек 23 отсутствует в базе данных
    Трек 24 отсутствует в базе данных
    Трек 25 отсутствует в базе данных
    Трек 26 отсутствует в базе данных
    Трек 27 отсутствует в базе данных
    Трек 28 отсутствует в базе данных
    Трек 29 отсутствует в базе данных
    Трек 30 отсутствует в базе данных
    Трек 31 отсутствует в базе данных
    Трек 32 отсутствует в базе данных
    Трек 33 отсутствует в базе данных
    Трек 34 отсутствует в базе данных
    Трек 35 отсутствует в базе данных
    Трек 36 отсутствует в базе данных
    Трек 37 отсутствует в базе данных
    Трек 38 отсутствует в базе данных

    Ни одного трека нет в базе AccurateRip

    Конец отчёта

    ---- CUETools DB Plugin V2.1.3

    [CTDB TOCID: FwJufSQVIVb0d.rQY98dVvJOKO8-] disk not present in database, Submit result: FwJufSQVIVb0d.rQY98dVvJOKO8- has been uploaded
    Audiochecker

    fooCDtect - foobar2000 + auCDtect, baralgin.

    auCDtect: CD records authenticity detector, version 0.8.2
    Copyright (c) 2004 Oleg Berngardt. All rights reserved.
    Copyright (c) 2004 Alexander Djourik. All rights reserved.

    mode: 0

    ===========================================
    Track: 01. Ойра вінницька
    Quality: CDDA 100%
    ===========================================
    Track: 02. Ой на горі вогонь
    Quality: CDDA 99%
    ===========================================
    Track: 03. Ой що ж то за шум
    Quality: CDDA 99%
    ===========================================
    Track: 04. Там за млином
    Quality: CDDA 100%
    ===========================================
    Track: 05. Да посію мак
    Quality: CDDA 100%
    ===========================================
    Track: 06. Ходив жуч
    Quality: CDDA 100%
    ===========================================
    Track: 07. Весняночко-паняночко
    Quality: CDDA 100%
    ===========================================
    Track: 08. Ой попід гору
    Quality: CDDA 100%
    ===========================================
    Track: 09. Ой чому ти не танцюєш
    Quality: CDDA 100%
    ===========================================
    Track: 10. Ходить качур
    Quality: CDDA 100%
    ===========================================
    Track: 11. Ми голубочку зловили
    Quality: CDDA 100%
    ===========================================
    Track: 12. Весільні
    Quality: CDDA 100%
    ===========================================
    Track: 13. Ой горе тій чайці
    Quality: CDDA 100%
    ===========================================
    Track: 14. Плескан
    Quality: CDDA 100%
    ===========================================
    Track: 15. Зайчику, мій братчику
    Quality: CDDA 100%
    ===========================================
    Track: 16. Ой на горі жито, жито
    Quality: CDDA 100%
    ===========================================
    Track: 17. Чи хазяїн спить
    Quality: CDDA 100%
    ===========================================
    Track: 18. Го-го-коза
    Quality: CDDA 100%
    ===========================================
    Track: 19. Подь, баранку, додому
    Quality: CDDA 100%
    ===========================================
    Track: 20. Чого, Галю, ни гуляєш
    Quality: CDDA 100%
    ===========================================
    Track: 21. Маланка ходила
    Quality: CDDA 100%
    ===========================================
    Track: 22. Добрий вечір
    Quality: CDDA 100%
    ===========================================
    Track: 23. Радуйтеся, пастирі
    Quality: CDDA 100%
    ===========================================
    Track: 24. Щадрий, щедрівочка
    Quality: CDDA 99%
    ===========================================
    Track: 25. Ти, козачку, шпачку
    Quality: CDDA 100%
    ===========================================
    Track: 26. Надворі чорна хмара
    Quality: CDDA 99%
    ===========================================
    Track: 27. Ой на дворі трава мурава
    Quality: CDDA 99%
    ===========================================
    Track: 28. Ой у лісі на орісі
    Quality: CDDA 99%
    ===========================================
    Track: 29. Ой ведення, народження
    Quality: CDDA 100%
    ===========================================
    Track: 30. Ой ходить сон
    Quality: CDDA 100%
    ===========================================
    Track: 31. Страждальная мати
    Quality: CDDA 100%
    ===========================================
    Track: 32. Повішу колиску
    Quality: CDDA 100%
    ===========================================
    Track: 33. Чорнушко-душко
    Quality: CDDA 100%
    ===========================================
    Track: 34. Ходив жучок
    Quality: CDDA 100%
    ===========================================
    Track: 35. Чорноморець, матінко
    Quality: CDDA 100%
    ===========================================
    Track: 36. Ой є в саду, садочку
    Quality: CDDA 100%
    ===========================================
    Track: 37. На петрушку копала
    Quality: CDDA 100%
    ===========================================
    Track: 38. Живітє герої
    Quality: CDDA 100%
    ===========================================
    Додаткова інформація:
    Не всі, але частину з представлених тут творів Ви вже могли чути раніше у попередніх виданнях ансамблю Цвітень та Марії Пилипчик – приємно чути давніх знайомих. Жартівливі, весільні, різдвяні, ліричні – перелік можна б доповнювати ще довго, бо ця збірка увібрала в себе дуже багату палітру українських народних пісень. Завдяки такій різноманітності зачеплених тем виникає навдивовижу наповнене, об’ємне відчуття – сприймаєш цю платівку, як цілий окремий світ, як проміжок людського життя. І тут, як і в житті, все часом перемішується, у тінь відступає струнка послідовність, циклічність подій, про які співається. Зате саме у цій суміші звучить – життя. Адже воно не дотримується вигаданих нами схем – тече за своїми законами, часом несподівано переплітаючи народження і смерть, жарт і сум, роботу і відпочинок. І ми, якщо не хочемо пропустити життя повз себе, маємо забути про штучні схеми – і спостерігати за цією живою течією, йти за нею, вгадувати її зміни. Так само і з цією платівкою: замість того, аби вигадувати якісь схеми сприйняття, ми пропонуємо просто зануритись до її живого, теплого простору – і вдихнути на повні груди, адже в українських піснях є все, що потрібно для справжнього, глибокого дихання. І коли ці пісні виконано так, як тут – повірте, хочеться, аби диск звучав не одну годину...

    Умка
    2008 - Грайлик



    Видавець: Rostok Records
    Пісні:
      01. Ходив жуч
      02. Сонечко, сонечко
      03. Іди, іди дощику
      04. Хто буде грати зайчика?
      05. Ой на горі жито
      06. Курчата просять просо
      07. Біла квочка
      08. Весняна гра
      09. Ягіл-ягілочка
      10. Ми голубочку зловили
      11. Два бобри
      12. Равлику-Павлику
      13. Куди ідеш, Вір’яне?
      14. Сорока-ворона
      15. Печу хлібчик
      16. Гра «Королі»
      17. Королі
      18. Дівоча гра «Подоляночка»
      19. Подоляночка
      20. Чорнушко-душко
      21. Плескан вінницький
      22. А вже наша грушка
      23. Ой є в саду
      24. А ми просо сіяли
      25. Куди ідеш, Романочку?
      26. Ти козачку-шпачку
      27. Іде, іде Жельман
      28. Йа кривого танцю
      29. Ми з тобою йшли?
      30. Чого Галю ни гуляєш?
      31. Гра в зайчика
      32. Зайчик
      33. Діду мій, сліду
      34. На петрушку копала
      35. Іде півник на війну
      36. Ойра вінницька

    Тривалість: 00:41:47
    Мова: українська
    Аудіо-кодек: APE
    Бітрейт: 697 кб/с
    Джерело: ріп Sehrg-Gut з власного диску
    EAC log

    Exact Audio Copy V1.0 beta 3 from 29. August 2011

    Отчёт EAC об извлечении, выполненном 7. мая 2013, 0:04

    Цвітень / Грайлик. Співають діти для дітей

    Дисковод: TSSTcorpCDDVDW TS-L633A Adapter: 0 ID: 1

    Режим чтения : Достоверность
    Использование точного потока : Да
    Отключение кэша аудио : Да
    Использование указателей C2 : Нет

    Коррекция смещения при чтении : 6
    Способность читать области Lead-in и Lead-out : Нет
    Заполнение пропущенных сэмплов тишиной : Да
    Удаление блоков с тишиной в начале и конце : Нет
    При вычислениях CRC использовались нулевые сэмплы : Да
    Интерфейс : Встроенный Win32-интерфейс для Win NT/2000

    Выходной формат : Внутренние WAV-операции
    Формат сэмплов : 44.100 Гц; 16 бит; стерео

    TOC извлечённого CD

    Трек | Старт | Длительность | Начальный сектор | Конечный сектор
    ---------------------------------------------------------------------
    1 | 0:01.00 | 2:33.59 | 75 | 11608
    2 | 2:34.59 | 0:07.61 | 11609 | 12194
    3 | 2:42.45 | 1:04.73 | 12195 | 17067
    4 | 3:47.43 | 0:28.23 | 17068 | 19190
    5 | 4:15.66 | 1:09.72 | 19191 | 24437
    6 | 5:25.63 | 0:11.38 | 24438 | 25300
    7 | 5:37.26 | 0:49.55 | 25301 | 29030
    8 | 6:27.06 | 0:27.71 | 29031 | 31126
    9 | 6:55.02 | 0:46.15 | 31127 | 34591
    10 | 7:41.17 | 1:13.51 | 34592 | 40117
    11 | 8:54.68 | 0:14.05 | 40118 | 41172
    12 | 9:08.73 | 1:03.65 | 41173 | 45962
    13 | 10:12.63 | 1:00.19 | 45963 | 50481
    14 | 11:13.07 | 0:43.67 | 50482 | 53773
    15 | 11:56.74 | 0:42.33 | 53774 | 56956
    16 | 12:39.32 | 0:29.74 | 56957 | 59205
    17 | 13:09.31 | 1:01.73 | 59206 | 63853
    18 | 14:11.29 | 0:13.65 | 63854 | 64893
    19 | 14:25.19 | 2:35.41 | 64894 | 76559
    20 | 17:00.60 | 2:20.47 | 76560 | 87106
    21 | 19:21.32 | 2:41.08 | 87107 | 99189
    22 | 22:02.40 | 0:49.48 | 99190 | 102912
    23 | 22:52.13 | 2:31.48 | 102913 | 114285
    24 | 25:23.61 | 1:20.14 | 114286 | 120299
    25 | 26:44.00 | 1:55.48 | 120300 | 128972
    26 | 28:39.48 | 1:38.02 | 128973 | 136324
    27 | 30:17.50 | 1:47.21 | 136325 | 144370
    28 | 32:04.71 | 1:05.70 | 144371 | 149315
    29 | 33:10.66 | 0:35.68 | 149316 | 152008
    30 | 33:46.59 | 1:11.32 | 152009 | 157365
    31 | 34:58.16 | 0:34.25 | 157366 | 159940
    32 | 35:32.41 | 1:02.59 | 159941 | 164649
    33 | 36:35.25 | 1:01.02 | 164650 | 169226
    34 | 37:36.27 | 1:12.63 | 169227 | 174689
    35 | 38:49.15 | 0:51.51 | 174690 | 178565
    36 | 39:40.66 | 2:07.39 | 178566 | 188129

    Характеристики диапазона извлечения и сообщения об ошибках

    Выбранный диапазон

    Имя файла C:\Users\toshiba\Downloads\RelizyZ11\Видуб\Цвітень - Грайлик. Співають діти для дітей.wav

    Пиковый уровень 100.0 %
    Скорость извлечения 3.3 X
    Качество диапазона 100.0 %
    CRC копии 2B353D4A
    Копирование... OK

    Ошибок не произошло

    AccurateRip: сводка

    Трек 1 отсутствует в базе данных
    Трек 2 отсутствует в базе данных
    Трек 3 отсутствует в базе данных
    Трек 4 отсутствует в базе данных
    Трек 5 отсутствует в базе данных
    Трек 6 отсутствует в базе данных
    Трек 7 отсутствует в базе данных
    Трек 8 отсутствует в базе данных
    Трек 9 отсутствует в базе данных
    Трек 10 отсутствует в базе данных
    Трек 11 отсутствует в базе данных
    Трек 12 отсутствует в базе данных
    Трек 13 отсутствует в базе данных
    Трек 14 отсутствует в базе данных
    Трек 15 отсутствует в базе данных
    Трек 16 отсутствует в базе данных
    Трек 17 отсутствует в базе данных
    Трек 18 отсутствует в базе данных
    Трек 19 отсутствует в базе данных
    Трек 20 отсутствует в базе данных
    Трек 21 отсутствует в базе данных
    Трек 22 отсутствует в базе данных
    Трек 23 отсутствует в базе данных
    Трек 24 отсутствует в базе данных
    Трек 25 отсутствует в базе данных
    Трек 26 отсутствует в базе данных
    Трек 27 отсутствует в базе данных
    Трек 28 отсутствует в базе данных
    Трек 29 отсутствует в базе данных
    Трек 30 отсутствует в базе данных
    Трек 31 отсутствует в базе данных
    Трек 32 отсутствует в базе данных
    Трек 33 отсутствует в базе данных
    Трек 34 отсутствует в базе данных
    Трек 35 отсутствует в базе данных
    Трек 36 отсутствует в базе данных

    Ни одного трека нет в базе AccurateRip

    Конец отчёта

    ---- CUETools DB Plugin V2.1.3

    [CTDB TOCID: h5ZuFQJMiNUsMjOCVZEWQ69KmB0-] disk not present in database, Submit result: discs with pregaps not supported in this protocol version
    Audiochecker

    fooCDtect - foobar2000 + auCDtect, baralgin.

    auCDtect: CD records authenticity detector, version 0.8.2
    Copyright (c) 2004 Oleg Berngardt. All rights reserved.
    Copyright (c) 2004 Alexander Djourik. All rights reserved.

    mode: 0

    ===========================================
    Track: 01. Ходив жуч
    Quality: CDDA 100%
    ===========================================
    Track: 02. Сонечко, сонечко
    Quality: CDDA 100%
    ===========================================
    Track: 03. Іди, іди дощику
    Quality: CDDA 100%
    ===========================================
    Track: 04. Хто буде грати зайчика
    Quality: CDDA 100%
    ===========================================
    Track: 05. Ой на горі жито
    Quality: CDDA 100%
    ===========================================
    Track: 06. Курчата просять просо
    Quality: CDDA 100%
    ===========================================
    Track: 07. Біла квочка
    Quality: CDDA 100%
    ===========================================
    Track: 08. Весняна гра
    Quality: CDDA 100%
    ===========================================
    Track: 09. Ягіл-ягілочка
    Quality: CDDA 100%
    ===========================================
    Track: 10. Ми голубочку зловили
    Quality: CDDA 100%
    ===========================================
    Track: 11. Два бобри
    Quality: CDDA 100%
    ===========================================
    Track: 12. Равлику-павлику
    Quality: CDDA 100%
    ===========================================
    Track: 13. Куди ідеш, Вір’яне
    Quality: CDDA 100%
    ===========================================
    Track: 14. Сорока-ворона
    Quality: CDDA 100%
    ===========================================
    Track: 15. Печу хлібчик
    Quality: CDDA 99%
    ===========================================
    Track: 16. Гра 'Королі'
    Quality: CDDA 99%
    ===========================================
    Track: 17. Королі
    Quality: CDDA 100%
    ===========================================
    Track: 18. Дівоча гра 'Подоляночка'
    Quality: CDDA 100%
    ===========================================
    Track: 19. Подоляночка
    Quality: CDDA 100%
    ===========================================
    Track: 20. Чорнушко-душко
    Quality: CDDA 99%
    ===========================================
    Track: 21. Плескан вінницький
    Quality: CDDA 100%
    ===========================================
    Track: 22. А вже наша грушка
    Quality: CDDA 100%
    ===========================================
    Track: 23. Ой є в саду
    Quality: CDDA 100%
    ===========================================
    Track: 24. А ми просо сіяли
    Quality: CDDA 99%
    ===========================================
    Track: 25. Куди ідеш, Романочку
    Quality: CDDA 100%
    ===========================================
    Track: 26. Ти козачку-шпачку
    Quality: CDDA 100%
    ===========================================
    Track: 27. Іде, іде Жельман
    Quality: CDDA 99%
    ===========================================
    Track: 28. Йа кривого танцю
    Quality: CDDA 99%
    ===========================================
    Track: 29. Ми з тобою йшли
    Quality: CDDA 100%
    ===========================================
    Track: 30. Чого Галю ни гуляєш
    Quality: CDDA 100%
    ===========================================
    Track: 31. Гра в зайчика
    Quality: CDDA 100%
    ===========================================
    Track: 32. Зайчик
    Quality: CDDA 100%
    ===========================================
    Track: 33. Діду мій, сліду
    Quality: CDDA 100%
    ===========================================
    Track: 34. На петрушку копала
    Quality: CDDA 100%
    ===========================================
    Track: 35. Іде півник на війну
    Quality: CDDA 100%
    ===========================================
    Track: 36. Ойра вінницька
    Quality: CDDA 100%
    ===========================================
    Додаткова інформація:
    Вихід цього диску присвячено 20-річному ювілеєві ансамблю "Цвітень" – поважний вік, чи не так? Тим більше – зважаючи на те, що діти ж виростають і йдуть... Втім, тут є важливий момент. Люди, які до музики були причетні з самого дитинства, вже ніколи без музики не залишаються – бо вона назавжди лишається у них всередині. Особливо це, мабуть, стосується таких колективів, як от "Цвітень" – де діти опановують, крім іншого, фольклор свого народу. А хіба існує коріння більш глибоке і гармонійне, ніж пронесена крізь час музична культура твоїх пращурів? Особливо – коли ти сам цю музику відтворюєш, вливаєш в неї нове життя. Ось воно, виховання свідомості через творчість. І це вже не кажучи про всіх тих, наприклад, хто сам хоч і не співає, але – дивиться, слухає... Між іншим, якщо повернутися саме до альбому "Грайлик", то є тут і ще один важливий нюанс: сюди потрапили пісні маловідомі, не заяложені надто частим виконанням зі сцени. Плюс – примовки, вірші, ігри. Відтак, його цікаво слухати не тільки тому, що тут звучать дитячі голоси, а й тому, що він здатен відкривати щось нове, невідоме. Отже – рекомендується і дітям, і дорослим...

    Умка
    2009 - Грайлик. Супровід до пісень (Відсутній у роздачі)

    Цей альбом у роздачі відсутній

    Видавець: UKRmusic
    Пісні:
      1. Ми голубочку зловили
      2. Ми голубочку зловили (супровід)
      3. Ходив жуч
      4. Ходив жуч (супровід)
      5. Іде півник
      6. Іде півник (супровід)
      7. Ой на горі жито
      8. Ой на горі жито (супровід)
      9. Подоляночка
      10. Подоляночка (супровід)
      11. А ми просо сіяли
      12. А ми просо сіяли (супровід)
      13. Зайчику, зайчику
      14. Зайчику, зайчику (супровід)
      15. Чого, Галю, ни гуляєш
      16. Чого, Галю, ни гуляєш (супровід)
      17. Печу, печу хлібчик
      18. Печу, печу хлібчик (супровід)
      19. Куди їдеш, Вір’яне
      20. Куди їдеш, Вір’яне (супровід)
      21. Біла квочка
      22. Біла квочка (супровід)
      23. Ти козачку, шпачку
      24. Ти козачку, шпачку (супровід)
      25. На петрушку копала
      26. На петрушку копала (супровід)
      27. А вже наша грушка
      28. А вже наша грушка (супровід)
      29. Чорнушко, душко
      30. Чорнушко, душко (супровід)
      31. Йа кривого танцю
      32. Йа кривого танцю (супровід)

    Тривалість: 00:41:47
    Мова: українська

    Додаткова інформація:
    "Перед Вами новий доробок дитячого фольклорного ансамблю "Цвітень" – поетичний світ, що зветься "Грайлик". Це пісенний репертуар, котрий співають діти для дітей. Сьогодні значна кількість дітей хоче слухати і співати природні ігрові традиційні пісні. Адже дитина пізнає світ граючись. Культурна модель гри сучасної дитини знаходиться у великій небезпеці. Погляньмо навколо. Модна сьогодні комп’ютерна гра та усіляке технічне обладнання витіснили з ужитку дитячого світу мамину колискову та сердечність простої і, водночас, мудрої традиційної народної гри...

    На цьому диску Ви почуєте вже знайомі пісні, котрі ансамбль "Цвітень" записав для Вас минулого року. А тепер Ви їх почуєте і зможете разом з нашими діточками заспівати самі, бо оркестр відомого хору імені Григорія Верьовки записав супровід для них.

    Таким диском зможуть скористатися не лише матері, але й вихователі дитячого садочку та школи і всі, кому захочеться співати з дітьми..."

    Марія Пилипчак

    (процитовано з поліграфії до видання)

    Умка


Тривалість: 03:37:24
Мова: українська
Аудіо-кодек: APE
Бітрейт: 697-783 кб/с
Джерело: ріп Sehrg-Gut з власних дисків
Також на Толоці:
Цей реліз у MP3


Якщо Ви справді бажаєте підтримати українське - після прослуховування, якщо музика вам сподобалась, придбайте ліцензійний диск. Підтримаймо вітчизняних виконавців!


Золотий реліз (завантажене не впливає на рейтинг)
 Трекер:    Зареєстрований   

Завантажити / скачати українську музику



відео для новачків



 Зареєстрований:   2013-05-16 18:15
 Розмір:   1.23 GB 
 Оцінка музики:   10/10 (Голосів: 1)
   
Ваш часовий пояс: GMT + 2 Години

Нова тема   Відповісти