Завантажити та скачати торренти українською


Безславні виродки / Inglourious Basterds (2009) 720p-mini

Нові коментарі

Нова тема   Відповісти
Автор Повідомлення
Drool 
VIP


З нами з: 17.04.10
Востаннє: 05.12.16
Повідомлень: 1262

2013-05-15 23:53  
Безславні виродки / Inglourious Basterds (2009) 720p-mini

Жанр: драма, пригодницький, воєнний
Країна: США, Німеччина, Франція



Кінокомпанія: The Weinstein Company, Universal Pictures
Режисер: Квентін Тарантіно
Актори: Бред Пітт, Крістоф Вальц, Майкл Фассбендер, Елі Рот, Дайан Крюґер, Деніель Брюль, Тіл Швайґер, Мелані Лоран

Сюжет:
Дія картини розвертається в окупованій Франції. На очах у Сюзанни Дрейфус від рук німецького полковника Ганса Ланда гине її сім'я. Дівчині дивом удається врятуватися і бігти до Парижу. Там вона влаштовується на роботу в кінотеатр. В цей же час десь в Європі лейтенант Альдо Рейн збирає групу єврейських солдатів, що іменують себе «Виродками». Обидві сюжетні лінії перетинаються, коли диверсанти зустрічаються в кінотеатрі з Сюзанною, яка мріє помститися кривдникам.


Тривалість: 02:32:52
Якість: 720p-mini
Відео:
кодек:
розмір кадру: 1280x536
бітрейт: 2200 кб/с

Аудіо:
мова: українська
переклад: професійний дубльований / одноголосий закадровий (переклад місць, де в оригіналі звучать інші мови)
кодек: 5.1
бітрейт: 384 кб/с

Звукову доріжку взято з роздачі 1080p від DixonD
MediaInfo
General
Unique ID : 248409316117987419577196174165198860685 (0xBAE1E4DFA6938641EA6914C7920D718D)
Complete name : /mnt/router/Video/Inglourious.Basterds.2009.Ukr..720p.mkv
Format : Matroska
File size : 2.76 GiB
Duration : 2h 32mn
Overall bit rate : 2 585 Kbps
Movie name : Безславні виродки / Inglourious Basterds (2009) 720p | video by Leonardo 59
Encoded date : UTC 2013-05-15 06:36:00
Writing application : mkvmerge v4.8.0 ('I Got The...') сборка от Aug 22 2011 13:16:28
Writing library : libebml v1.2.0 + libmatroska v1.1.0

Video
ID : 1
Format : AVC
Format/Info : Advanced Video Codec
Format profile : [email protected]
Format settings, CABAC : Yes
Format settings, ReFrames : 9 frames
Codec ID : V_MPEG4/ISO/AVC
Duration : 2h 32mn
Bit rate : 2 200 Kbps
Width : 1 280 pixels
Height : 536 pixels
Display aspect ratio : 2.35:1
Frame rate mode : Variable
Frame rate : 23.976 fps
Color space : YUV
Chroma subsampling : 4:2:0
Bit depth : 8 bits
Scan type : Progressive
Bits/(Pixel*Frame) : 0.134
Stream size : 2.29 GiB (83%)
Title : Безславні виродки / Inglourious Basterds (2009) 720p | video by Leonardo 59
Writing library : core 116 r2057 0ba8a9c
Encoding settings : cabac=1 / ref=9 / deblock=1:0:0 / analyse=0x3:0x133 / me=umh / subme=9 / psy=1 / psy_rd=1.00:0.00 / mixed_ref=1 / me_range=32 / chroma_me=1 / trellis=1 / 8x8dct=1 / cqm=0 / deadzone=21,11 / fast_pskip=1 / chroma_qp_offset=-2 / threads=3 / sliced_threads=0 / nr=0 / decimate=1 / interlaced=0 / bluray_compat=0 / constrained_intra=0 / bframes=9 / b_pyramid=2 / b_adapt=1 / b_bias=0 / direct=1 / weightb=1 / open_gop=0 / weightp=2 / keyint=250 / keyint_min=23 / scenecut=40 / intra_refresh=0 / rc_lookahead=40 / rc=2pass / mbtree=1 / bitrate=2200 / ratetol=1.0 / qcomp=0.60 / qpmin=0 / qpmax=69 / qpstep=4 / cplxblur=20.0 / qblur=0.5 / ip_ratio=1.40 / aq=1:1.00

Audio
ID : 2
Format : AC-3
Format/Info : Audio Coding 3
Mode extension : CM (complete main)
Codec ID : A_AC3
Duration : 2h 32mn
Bit rate mode : Constant
Bit rate : 384 Kbps
Channel(s) : 6 channels
Channel positions : Front: L C R, Side: L R, LFE
Sampling rate : 48.0 KHz
Bit depth : 16 bits
Compression mode : Lossy
Delay relative to video : -83ms
Stream size : 420 MiB (15%)
Title : Українська (професійний дубльований / одноголосий закадровий)
Language : Ukrainian
Скріншоти





Джерело: відеоряд взято з ріпа
Особиста оцінка: 8 - мені сподобалося


 Трекер:    Зареєстрований   

Завантажити / скачати фільм українською



відео для новачків



 Зареєстрований:   2013-05-15 23:53
 Розмір:   2.76 GB 
 Оцінка фільму:   8.5/10 (Голосів: 31)
   
Drool 
VIP


З нами з: 17.04.10
Востаннє: 05.12.16
Повідомлень: 1262

2013-05-16 10:28  
Виготовив для себе ріп для планшетного комп'ютера - 720x304 на 1,2 гіга:
MediaInfo
General
Complete name : /home/drool/Документы/Видео/Inglourious Basterds 2009 AVC (Tablet PC).m4v
Format : MPEG-4
Format profile : Base Media / Version 2
Codec ID : mp42
File size : 1.24 GiB
Duration : 2h 32mn
Overall bit rate : 1 165 Kbps
Movie name : Безславні виродки / Inglourious Basterds (2009) AVC for Tablet PC| -=UAGet
Album/Performer : Квентін Тарантіно
Performer : Бред Пітт, Крістоф Вальц, Майкл Фассбендер, Елі Рот, Тіль Швайґер та ін.
Genre : бойовик, драма, комедія, воєнний
Recorded date : 2009
Encoded date : UTC 2013-05-15 15:16:03
Tagged date : UTC 2013-05-15 21:25:06
Writing application : HandBrake rev0 2013050199
ldes : Дія картини розвертається в окупованій Франції. На очах у Сюзанни Дрейфус від рук німецького полковника Ганса Ланда гине її сім'я. Дівчині дивом удається врятуватися і бігти до Парижу. Там вона влаштовується на роботу в кінотеатр. / / В цей же час десь в Європі лейтенант Альдо Рейн збирає групу єврейських солдатів, що іменують себе «Виродками». До них примикає таємний агент Бріджет фон Хаммерсмарк, що видає себе за актрису. Обидві сюжетні лінії перетинаються, коли диверсанти зустрічаються в кінотеатрі з Сюзанною, яка мріє помститися кривдникам.

Video
ID : 1
Format : AVC
Format/Info : Advanced Video Codec
Format profile : [email protected]
Format settings, CABAC : Yes
Format settings, ReFrames : 5 frames
Codec ID : avc1
Codec ID/Info : Advanced Video Coding
Duration : 2h 32mn
Bit rate mode : Variable
Bit rate : 1 000 Kbps
Width : 720 pixels
Height : 304 pixels
Display aspect ratio : 2.35:1
Frame rate mode : Variable
Frame rate : 23.976 fps
Minimum frame rate : 23.810 fps
Maximum frame rate : 24.390 fps
Color space : YUV
Chroma subsampling : 4:2:0
Bit depth : 8 bits
Scan type : Progressive
Bits/(Pixel*Frame) : 0.191
Stream size : 1.07 GiB (86%)
Writing library : core 130
Encoding settings : cabac=1 / ref=5 / deblock=1:-1:-1 / analyse=0x3:0x113 / me=umh / subme=8 / psy=1 / psy_rd=1,00:0,15 / mixed_ref=1 / me_range=16 / chroma_me=1 / trellis=1 / 8x8dct=1 / cqm=0 / deadzone=21,11 / fast_pskip=1 / chroma_qp_offset=-3 / threads=6 / lookahead_threads=1 / sliced_threads=0 / nr=0 / decimate=1 / interlaced=0 / bluray_compat=0 / constrained_intra=0 / bframes=3 / b_pyramid=2 / b_adapt=2 / b_bias=0 / direct=3 / weightb=1 / open_gop=0 / weightp=2 / keyint=240 / keyint_min=24 / scenecut=40 / intra_refresh=0 / rc_lookahead=50 / rc=2pass / mbtree=1 / bitrate=1000 / ratetol=1,0 / qcomp=0,60 / qpmin=0 / qpmax=69 / qpstep=4 / cplxblur=20,0 / qblur=0,5 / vbv_maxrate=62500 / vbv_bufsize=78125 / nal_hrd=none / ip_ratio=1,40 / aq=1:1,00
Encoded date : UTC 2013-05-15 15:16:03
Tagged date : UTC 2013-05-15 21:25:06
Color primaries : BT.709-5, BT.1361, IEC 61966-2-4, SMPTE RP177
Transfer characteristics : BT.709-5, BT.1361
Matrix coefficients : BT.709-5, BT.1361, IEC 61966-2-4 709, SMPTE RP177

Audio
ID : 2
Format :
Format/Info : Advanced Audio Codec
Format profile : LC
Codec ID : 40
Duration : 2h 32mn
Bit rate mode : Variable
Bit rate : 160 Kbps
Maximum bit rate : 307 Kbps
Channel(s) : 2 channels
Channel positions : Front: L R
Sampling rate : 44.1 KHz
Compression mode : Lossy
Stream size : 174 MiB (14%)
Language : Ukrainian
Encoded date : UTC 2013-05-15 15:16:03
Tagged date : UTC 2013-05-15 21:25:06
Info
[info]: frame I:1819 Avg QP:11,84 size: 52753 PSNR Mean Y:50,71 U:53,13 V:53,43 Avg:51,38 Global:50,93
[info]: frame P:61562 Avg QP:14,14 size: 11942 PSNR Mean Y:48,51 U:51,02 V:51,23 Avg:49,16 Global:48,43
[info]: frame B:156530 Avg QP:17,67 size: 2015 PSNR Mean Y:47,56 U:50,48 V:50,76 Avg:48,29 Global:47,44
[info]: consecutive B-frames: 1,9% 3,2% 19,0% 75,8%
[info]: mb I I16..4: 9,7% 58,6% 31,7%
[info]: mb P I16..4: 0,7% 3,1% 1,2% P16..4: 34,0% 26,8% 23,3% 0,0% 0,0% skip:11,0%
[info]: mb B I16..4: 0,0% 0,2% 0,1% B16..8: 35,9% 7,4% 2,1% direct: 2,6% skip:51,6% L0:40,3% L1:42,7% BI:17,0%
[info]: 8x8 transform intra:61,0% inter:64,9%
[info]: direct mvs spatial:97,0% temporal:3,0%
[info]: coded y,uvDC,uvAC intra: 86,1% 90,1% 81,3% inter: 22,4% 21,2% 8,3%
[info]: i16 v,h,dc,p: 43% 12% 14% 31%
[info]: i8 v,h,dc,ddl,ddr,vr,hd,vl,hu: 13% 10% 8% 9% 12% 12% 11% 12% 13%
[info]: i4 v,h,dc,ddl,ddr,vr,hd,vl,hu: 12% 9% 6% 10% 14% 13% 12% 12% 13%
[info]: i8c dc,h,v,p: 49% 19% 19% 13%
[info]: Weighted P-Frames: Y:2,8% UV:1,4%
[info]: ref P L0: 54,0% 15,8% 16,3% 7,9% 5,0% 1,0% 0,0%
[info]: ref B L0: 74,4% 18,7% 5,4% 1,5%
[info]: ref B L1: 93,3% 6,7%
[info]: SSIM Mean Y:0,9907387 (20,333db)
[info]: PSNR Mean Y:47,853 U:50,654 V:50,913 Avg:48,556 Global:47,718 kb/s:1000,05
Якщо комусь цікаво - можу також викласти.

Curt-fen 
Новенький


З нами з: 31.01.14
Востаннє: 27.09.16
Повідомлень: 1

2014-01-31 23:43  
фільм - бомба, особливо українською, Drool, дуже тобі вдячний)
PitilessQuazar 
Новенький


З нами з: 31.07.13
Востаннє: 26.11.16
Повідомлень: 5

2015-07-02 22:41  
Роздаватиму допоки дихатиму Wink (1)
Estranded 
VIP


З нами з: 09.02.14
Востаннє: 05.12.16
Повідомлень: 835

2015-09-03 15:31  
Роздайте хтось, бо не вантажиться! Дякую.
Ваш часовий пояс: GMT + 2 Години

Нова тема   Відповісти