Завантажити та скачати торренти українською


Осине гніздо / Nid de guêpes / The Nest (2002) 1080p Ukr/Fre | Sub Eng

Нові коментарі

Нова тема   Відповісти
Автор Повідомлення
Anonymous 







2013-05-15 16:56  
Осине гніздо / Nid de guêpes / The Nest (2002) 1080p Ukr/Fre | Sub Eng



Альтернативний український постер



Жанр: бойовик, трилер, кримінальний
Країна: Франція



Кінокомпанія: Canal+, Carrère Groupe, Cinémane Films
Режисер: Флорент Еміліо Сірі / Florent Emilio Siri
Актори: Самі Насері / Samy Naceri, Бенуа Мажимель / Benoit Magimel, Надя Фарес / Nadia Fares, Паскаль Грегорі / Pascal Greggory, Самі Буажила / Sami Bouajila, Анізія Юзейман / Anisia Uzeyman, Рішар Саммель / Richard Sammel, Валеріо Мастандреа / Valerio Mastandrea, Мартьяль Одон / Martial Odone, Мартін Амік / Martin Amic, Александр Хаміді / Alexandre Hamidi, Анджело Інфанті / Angelo Infanti та інші.

Сюжет:
Елен Лаборі 30 років, вона агент спецназу. Її завдання: сопроводжувати Абдена Нексепа, значну фігуру в албанскій мафії. Цей небезпечний злочинець звинувачується в створенні широкої мережі проституції і повинен постати перед європейським судом.
Четвер, 14-е липня… Під час перевезення Абдена наймані вбивці з його організації влаштовують вночі засідку, щоби визволити свого шефа, але Лаборі і її команді вдаєтся висковзнути від них разом зі своїм в'язнем і сховатись в складському ангарі в величезній індустріальній зоні. Там вони зтикаються з бандою, що проникнула туди з метою викрасти комп'ютерне обладнання. І в цей же час люди Нексепа оточують ангар…


рейтинг MPAA: R - особам до 17 років обов'язкова присутність батьків або дорослого опікуна
Вікова категорія: 16+

Тривалість: 01:47:16
Якість: 1080p
Відео:
кодек:
розмір кадру: 1920x816
бітрейт: 9082 кб/с

Аудіо # 1:
мова: українська - озвучено компанією "Кіт", запис з телеканалу
переклад: багатоголосий закадровий (один з голосів належить Тетяні Зіновенко)
кодек: 5.1
бітрейт: 448 кб/с

Аудіо # 2:
мова: французька
переклад: оригінал
кодек: 5.1
бітрейт: 640 кб/с

Субтитри:
мова: англійська
тип: програмні (м'які)
формат: *.srt

Збережено оригінальні розділи, як на Blu-ray.
MediaInfo та
[info]: frame I:1304 Avg QP:18.32 size:144599
[info]: frame P:41083 Avg QP:20.72 size: 71950
[info]: frame B:112077 Avg QP:23.05 size: 37109
=====================================
General
Unique ID : 170823611418555241627946043359278837222 (0x80836E4BC9C8E5C6980BE5316D7AADE6)
Complete name : The.Nest.2002..1080p.Ukr.Fre.mkv
Format : Matroska
Format version : Version 4 / Version 2
File size : 7.62 GiB
Duration : 1h 47mn
Overall bit rate : 10.2 Mbps
Movie name : Осине гніздо / Nid de guêpes / The Nest / Осиное гнездо (2002)
Encoded date : UTC 2013-05-15 14:04:15
Writing application : mkvmerge v6.2.0 ('Promised Land') built on Apr 28 2013 12:22:01
Writing library : libebml v1.3.0 + libmatroska v1.4.0

Video
ID : 1
Format : AVC
Format/Info : Advanced Video Codec
Format profile : [email protected]
Format settings, CABAC : Yes
Format settings, ReFrames : 5 frames
Codec ID : V_MPEG4/ISO/AVC
Duration : 1h 47mn
Bit rate : 9 082 Kbps
Width : 1 920 pixels
Height : 816 pixels
Display aspect ratio : 2.35:1
Frame rate mode : Constant
Frame rate : 24.000 fps
Color space : YUV
Chroma subsampling : 4:2:0
Bit depth : 8 bits
Scan type : Progressive
Bits/(Pixel*Frame) : 0.242
Stream size : 6.65 GiB (87%)
Title : Осине гніздо / Nid de guêpes / The Nest / Осиное гнездо (2002), rip by WIDDER
Writing library : core 132 r2310 76a5c3a
Encoding settings : cabac=1 / ref=5 / deblock=1:-3:-3 / analyse=0x3:0x133 / me=umh / subme=11 / psy=1 / psy_rd=1.00:0.00 / mixed_ref=1 / me_range=48 / chroma_me=1 / trellis=2 / 8x8dct=1 / cqm=0 / deadzone=21,11 / fast_pskip=0 / chroma_qp_offset=-2 / threads=12 / lookahead_threads=1 / sliced_threads=0 / nr=0 / decimate=1 / interlaced=0 / bluray_compat=0 / constrained_intra=0 / bframes=5 / b_pyramid=2 / b_adapt=2 / b_bias=0 / direct=3 / weightb=1 / open_gop=0 / weightp=2 / keyint=240 / keyint_min=24 / scenecut=40 / intra_refresh=0 / rc_lookahead=60 / rc=2pass / mbtree=0 / bitrate=9082 / ratetol=1.0 / qcomp=0.60 / qpmin=0 / qpmax=69 / qpstep=4 / cplxblur=20.0 / qblur=0.5 / vbv_maxrate=62500 / vbv_bufsize=78125 / nal_hrd=none / ip_ratio=1.40 / pb_ratio=1.30 / aq=2:1.00
Language : French
Default : Yes
Forced : No

Audio #1
ID : 2
Format : AC-3
Format/Info : Audio Coding 3
Mode extension : CM (complete main)
Format settings, Endianness : Big
Codec ID : A_AC3
Duration : 1h 47mn
Bit rate mode : Constant
Bit rate : 448 Kbps
Channel(s) : 6 channels
Channel positions : Front: L C R, Side: L R, LFE
Sampling rate : 48.0 KHz
Bit depth : 16 bits
Compression mode : Lossy
Stream size : 344 MiB (4%)
Title : MVO [KIHO] 5.1 448 Kbps
Language : Ukrainian
Default : Yes
Forced : No

Audio #2
ID : 3
Format : AC-3
Format/Info : Audio Coding 3
Mode extension : CM (complete main)
Format settings, Endianness : Big
Codec ID : A_AC3
Duration : 1h 47mn
Bit rate mode : Constant
Bit rate : 640 Kbps
Channel(s) : 6 channels
Channel positions : Front: L C R, Side: L R, LFE
Sampling rate : 48.0 KHz
Bit depth : 16 bits
Compression mode : Lossy
Stream size : 491 MiB (6%)
Title : Original 5.1 640 Kbps
Language : French
Default : No
Forced : No

Text
ID : 4
Format : UTF-8
Codec ID : S_TEXT/UTF8
Codec ID/Info : UTF-8 Plain Text
Title : Eng full
Language : English
Default : No
Forced : No

Menu
00:00:00.000 : :Chapter 01
00:05:00.000 : :Chapter 02
00:10:00.000 : :Chapter 03
00:15:00.000 : :Chapter 04
00:20:00.000 : :Chapter 05
00:25:00.000 : :Chapter 06
00:30:00.000 : :Chapter 07
00:35:00.000 : :Chapter 08
00:40:00.000 : :Chapter 09
00:45:00.000 : :Chapter 10
00:50:00.000 : :Chapter 11
00:55:00.000 : :Chapter 12
01:00:00.000 : :Chapter 13
01:05:00.000 : :Chapter 14
01:10:00.000 : :Chapter 15
01:15:00.000 : :Chapter 16
01:20:00.000 : :Chapter 17
01:25:00.000 : :Chapter 18
01:30:00.000 : :Chapter 19
01:35:00.000 : :Chapter 20
01:40:00.000 : :Chapter 21
01:45:00.000 : :Chapter 22


Джерела та подяки: ріп відео, оригінальні звук та субтитри - WIDDER (рутор); українську доріжку теж взято з релізу WIDDER'а, але імовірно першоджерелом була доріжка з Гуртом від п._oles'я (запис з ТБ - Merdiff), постери - Воїн та Brut (всі - Гуртом).

Особиста оцінка: 8 - мені сподобалося

ЗАЛИШАЙТЕСЬ ЯКОМОГА ДОВШЕ НА РОЗДАЧІ, НЕ ОБМЕЖУЙТЕ ШВИДКІСТЬ ВІДДАЧІ!

СКАЧАВ САМ - ДАЙ СКАЧАТИ ІНШИМ


Срібний реліз (на рейтинг впливає 50% завантаженого)
 Трекер:    Зареєстрований   

Завантажити / скачати фільм українською



відео для новачків



 Зареєстрований:   2013-05-15 16:56
 Розмір:   7.62 GB 
 Оцінка фільму:   3.3/10 (Голосів: 15)
   
Ваш часовий пояс: GMT + 2 Години

Нова тема   Відповісти