Завантажити та скачати торренти українською


Андерсон - Словозброя (2008) [FLAC] | Alternative Rock

Нові коментарі

Нова тема   Відповісти
Останній раз роздавалося YuriiVO (2016-11-13)
Автор Повідомлення
ssTAss 
Модератор музики


З нами з: 05.07.08
Востаннє: 04.12.16
Повідомлень: 10935

2013-05-14 23:25  
Андерсон - Словозброя (2008) [FLAC] | Alternative Rock

Андерсон - Словозброя (2008) [FLAC] | Alternative Rock


Стиль: Alternative Rock
Країна, місто: Україна, Київ
Сайти: Офіційний сайт
Видавець: Vesna Music
Виконавці:
Влад - Бас
Міха - Гітара, DJ
Mixo - Барабани, DJ
Руслан - Вокал, DJ
Пісні:
    01. Сам/сам [2:35]
    02. Тратата [3:00]
    03. Споживач [2:35]
    04. Р.Д.З. [2:25]
    05. Ти і я [3:25]
    06. Законопроект [2:33]
    07. Той дивний день [4:23]
    08. Словозброя [3:00]
    09. ВорогДруг [2:21]
    10. Потяг [3:52]
    11. Правила Гри [2:42]
    12. Шеггі (Олігархофрени) [2:49]
log
Exact Audio Copy V0.99 prebeta 5 from 4. May 2009

EAC extraction logfile from 14. January 2011, 3:26

Андерсон / Словозброя

Used drive : HL-DT-STDVDRAM GH22NS40 Adapter: 5 ID: 0

Read mode : Secure
Utilize accurate stream : Yes
Defeat audio cache : Yes
Make use of C2 pointers : No

Read offset correction : 667
Overread into Lead-In and Lead-Out : No
Fill up missing offset samples with silence : Yes
Delete leading and trailing silent blocks : No
Null samples used in CRC calculations : Yes
Used interface : Installed external ASPI interface

Used output format : User Defined Encoder
Selected bitrate : 768 kBit/s
Quality : High
Add ID3 tag : No
Command line compressor : C:\Program Files\Exact Audio Copy\Flac\flac.exe
Additional command line options : -8 -V -T "ARTIST=%a" -T "TITLE=%t" -T "ALBUM=%g" -T "DATE=%y" -T "TRACKNUMBER=%n" -T "GENRE=%m" -T "COMMENT=%e" %s -o %d

TOC of the extracted CD

Track | Start | Length | Start sector | End sector
---------------------------------------------------------
1 | 0:00.00 | 2:37.00 | 0 | 11774
2 | 2:37.00 | 3:02.35 | 11775 | 25459
3 | 5:39.35 | 2:34.00 | 25460 | 37009
4 | 8:13.35 | 2:30.39 | 37010 | 48298
5 | 10:43.74 | 3:27.00 | 48299 | 63823
6 | 14:10.74 | 2:34.00 | 63824 | 75373
7 | 16:44.74 | 4:23.74 | 75374 | 95172
8 | 21:08.73 | 3:02.74 | 95173 | 108896
9 | 24:11.72 | 2:24.00 | 108897 | 119696
10 | 26:35.72 | 3:56.74 | 119697 | 137470
11 | 30:32.71 | 2:44.00 | 137471 | 149770
12 | 33:16.71 | 2:52.52 | 149771 | 162722

Range status and errors

Selected range

Filename E:\1EAC Rip\Андерсон - Словозброя (2008)\Андерсон - Словозброя.wav

Peak level 97.8 %
Range quality 100.0 %
Copy CRC CCEB206B
Copy OK

No errors occurred

AccurateRip summary

Track 1 not present in database
Track 2 not present in database
Track 3 not present in database
Track 4 not present in database
Track 5 not present in database
Track 6 not present in database
Track 7 not present in database
Track 8 not present in database
Track 9 not present in database
Track 10 not present in database
Track 11 not present in database
Track 12 not present in database

None of the tracks are present in the AccurateRip database

End of status report
fooCDtect
fooCDtect - foobar2000 + auCDtect, baralgin.

auCDtect: CD records authenticity detector, version 0.8.2
Copyright (c) 2004 Oleg Berngardt. All rights reserved.
Copyright (c) 2004 Alexander Djourik. All rights reserved.

mode: 0

===========================================
Track: 01 - Сам-Сам
Quality: CDDA 100%
===========================================
Track: 02 - Тратата
Quality: CDDA 100%
===========================================
Track: 03 - Споживач
Quality: CDDA 100%
===========================================
Track: 04 - РДЗ
Quality: CDDA 100%
===========================================
Track: 05 - Ти і Я
Quality: CDDA 100%
===========================================
Track: 06 - Правила гри
Quality: CDDA 100%
===========================================
Track: 07 - Дивний день
Quality: CDDA 99%
===========================================
Track: 08 - Словозброя
Quality: CDDA 100%
===========================================
Track: 09 - ВорогДруг
Quality: CDDA 100%
===========================================
Track: 10 - Потяг
Quality: CDDA 100%
===========================================
Track: 11 - Законопроект
Quality: CDDA 100%
===========================================
Track: 12 - Шеггі (Олігархофрени)
Quality: CDDA 100%
===========================================
Тривалість: 00:36:10
Мова: українська
Аудіо-кодек: FLAC
Бітрейт: 992 кб/с
Джерело: ріп kievman2
Додаткова інформація:
"Андерсон" – альтернативний київський гурт, донедавна відомий більше у вузьких колах. Втім, останнім часом гурт помітно активізувався, і не без результату. Пісня "РДЗ (Роздайте дітям зброю)", яка стала у ефірах радіо та ТБ провісником виходу дебютного альбому – змогла викликати резонанс завдяки провокаційному тексту і доволі експресивній подачі матеріалу. Отже, в результаті на появу альбому чекали навіть ті, хто до того про гурт не знав – і, гадаємо, слухачі не будуть розчаровані. "Словозброя" – цільний, виховано-агресивний альбом, у звучанні якого немає практично нічого зайвого. Тобто, за допомоги мінімуму засобів (класичний рок-склад) досягнуто справжньої виразності – питань не виникає. Тим більше, що головну увагу забирають на себе не так музичні ходи, як тексти. У цьому сенсі "Словозброя" – доволі рідкісне, як на сьогодні, явище: альбом на соціальну тему, причому – з доволі гострими словами. У всякому разі, наприклад, пісня "Законопроект" не лишає сумнівів, що автори глибоко опрацювали обрану тему... Втім, це не єдиний текст, за яким цікаво спостерігати – що теж приємно. І тому нам здалося, що альбомом варто поцікавитись, як мінімум, кожному, хто вважає себе небайдужим.


Якщо Ви справді бажаєте підтримати українське - після прослуховування, якщо музика вам сподобалась,
придбайте ліцензійний диск.
Підтримаймо вітчизняних виконавців!


Срібний реліз (на рейтинг впливає 50% завантаженого)
 Трекер:    Зареєстрований   

Завантажити / скачати українську музику



відео для новачків



 Зареєстрований:   2013-05-14 23:25
 Розмір:   257 MB 
 Оцінка музики:   6.8/10 (Голосів: 9)
   
ssTAss 
Модератор музики


З нами з: 05.07.08
Востаннє: 04.12.16
Повідомлень: 10935

2013-05-14 23:26  
Ваш часовий пояс: GMT + 2 Години

Нова тема   Відповісти