Завантажити та скачати торренти українською


Фото за годину / One Hour Photo (2002) 1080p Ukr/Eng | Sub Ukr/Eng

Нові коментарі

Нова тема   Відповісти
Автор Повідомлення
Anonymous 







2013-05-14 22:13  
Фото за годину / One Hour Photo (2002) 1080p Ukr/Eng | Sub Ukr/Eng



Жанр: драма, психологічний трилер
Країна: США



Кінокомпанія: Fox Searchlight Pictures, Catch 23 Entertainment, Killer Films
Режисер: Марк Романек / Mark Romanek
Актори: Робін Вільямс / Robin Williams, Майкл Вартан / Michael Vartan, Конні Нілсен / Connie Nielsen, Ділан Сміт / Dylan Smith, Гарі Коул / Gary Cole, Ерік Ла Салле / Eriq La Salle, Пол Г. Кім / Paul H. Kim

Сюжет:
Сей Перріш (Робін Вільямс) - самотня, нещасна, літня людина без сім'ї, рідних та друзів. Єдиний сенс його життя - це робота в фотолабораторії, яку він очолює вже 20 років. У житті його ніщо не хвилює, окрім фотографій, які він створює з високим професіоналізмом. Його цінують клієнти, особливо сімейство Йоркін, яке протягом багатьох років давало йому на обробку щотижня свої знімки. За ці роки Сей за фотографіями уважно вивчив життя їх сім'ї і полюбив її, але не подав вигляду. І ось, дізнавшись про складнощі в сім'ї Йоркін, Перріш вирішує сам втрутитися в їхнє життя, вириваючи назовні всі роки свого безумства, самотності і таємної пристрасті...


рейтинг MPAA: R - особам до 17 років обов'язкова присутність батьків або дорослого опікуна
Вікова категорія: 16+

Тривалість: 01:36:01
Якість: 1080p
Відео:
кодек:
розмір кадру: 1920x1040
бітрейт: 10127 кб/с

Аудіо # 1:
мова: українська - студія "Старий Майстер"
переклад: багатоголосий закадровий
ролі озвучили: Олег Лепенець та Лідія Муращенко
кодек: 5.1
бітрейт: 448 кб/с

Аудіо # 2:
мова: англійська
переклад: оригінал
кодек: 5.1
бітрейт: 640 кб/с

Субтитри # 1:
мова: українська
тип: програмні (м'які)
формат: *.srt

Субтитри # 2:
мова: англійська
тип: програмні (м'які)
формат: *.srt
MediaInfo та
Код:
[info]: frame I:943 Avg QP:19.43 size:180184
[info]: frame P:28917 Avg QP:21.17 size: 80390
[info]: frame B:108270 Avg QP:23.34 size: 44273


Код:
General
Unique ID                                : 245071023964699187237093752374450310187 (0xB85EF65CEE85994188F573774169CC2B)
Complete name                            : One.Hour.Photo.2002..1080p.Ukr.Eng.mkv
Format                                   : Matroska
Format version                           : Version 4 / Version 2
File size                                : 7.52 GiB
Duration                                 : 1h 36mn
Overall bit rate                         : 11.2 Mbps
Movie name                               : Фото за годину / One Hour Photo / Фото за час (2002)
Encoded date                             : UTC 2013-05-14 17:32:22
Writing application                      : mkvmerge v6.2.0 ('Promised Land') built on Apr 28 2013 12:22:01
Writing library                          : libebml v1.3.0 + libmatroska v1.4.0

Video
ID                                       : 1
Format                                   : AVC
Format/Info                              : Advanced Video Codec
Format profile                           : [email protected]
Format settings, CABAC                   : Yes
Format settings, ReFrames                : 4 frames
Codec ID                                 : V_MPEG4/ISO/AVC
Duration                                 : 1h 36mn
Bit rate                                 : 10.1 Mbps
Width                                    : 1 920 pixels
Height                                   : 1 040 pixels
Display aspect ratio                     : 1.85:1
Frame rate mode                          : Constant
Frame rate                               : 23.976 fps
Color space                              : YUV
Chroma subsampling                       : 4:2:0
Bit depth                                : 8 bits
Scan type                                : Progressive
Bits/(Pixel*Frame)                       : 0.212
Stream size                              : 6.64 GiB (88%)
Title                                    : Фото за годину / One Hour Photo / Фото за час (2002), rip by Widder
Writing library                          : core 132 r2310 76a5c3a
Encoding settings                        : cabac=1 / ref=4 / deblock=1:-3:-3 / analyse=0x3:0x133 / me=umh / subme=11 / psy=1 / psy_rd=1.00:0.00 / mixed_ref=1 / me_range=48 / chroma_me=1 / trellis=2 / 8x8dct=1 / cqm=0 / deadzone=21,11 / fast_pskip=0 / chroma_qp_offset=-2 / threads=12 / lookahead_threads=1 / sliced_threads=0 / nr=0 / decimate=1 / interlaced=0 / bluray_compat=0 / constrained_intra=0 / bframes=5 / b_pyramid=2 / b_adapt=2 / b_bias=0 / direct=3 / weightb=1 / open_gop=0 / weightp=2 / keyint=240 / keyint_min=23 / scenecut=40 / intra_refresh=0 / rc_lookahead=60 / rc=2pass / mbtree=0 / bitrate=10127 / ratetol=1.0 / qcomp=0.60 / qpmin=0 / qpmax=69 / qpstep=4 / cplxblur=20.0 / qblur=0.5 / vbv_maxrate=62500 / vbv_bufsize=78125 / nal_hrd=none / ip_ratio=1.40 / pb_ratio=1.30 / aq=1:1.00
Language                                 : English
Default                                  : Yes
Forced                                   : No

Audio #1
ID                                       : 2
Format                                   : AC-3
Format/Info                              : Audio Coding 3
Mode extension                           : CM (complete main)
Format settings, Endianness              : Big
Codec ID                                 : A_AC3
Duration                                 : 1h 36mn
Bit rate mode                            : Constant
Bit rate                                 : 448 Kbps
Channel(s)                               : 6 channels
Channel positions                        : Front: L C R, Side: L R, LFE
Sampling rate                            : 48.0 KHz
Bit depth                                : 16 bits
Compression mode                         : Lossy
Stream size                              : 308 MiB (4%)
Title                                    : MVO [KIHO-Старий-Майстер] 5.1 448 Kbps
Language                                 : Ukrainian
Default                                  : Yes
Forced                                   : No

Audio #2
ID                                       : 3
Format                                   : AC-3
Format/Info                              : Audio Coding 3
Mode extension                           : CM (complete main)
Format settings, Endianness              : Big
Codec ID                                 : A_AC3
Duration                                 : 1h 36mn
Bit rate mode                            : Constant
Bit rate                                 : 640 Kbps
Channel(s)                               : 6 channels
Channel positions                        : Front: L C R, Side: L R, LFE
Sampling rate                            : 48.0 KHz
Bit depth                                : 16 bits
Compression mode                         : Lossy
Stream size                              : 440 MiB (6%)
Title                                    : Original 5.1 640 Kbps
Language                                 : English
Default                                  : No
Forced                                   : No

Text #1
ID                                       : 4
Format                                   : UTF-8
Codec ID                                 : S_TEXT/UTF8
Codec ID/Info                            : UTF-8 Plain Text
Title                                    : Ukr full
Language                                 : Ukrainian
Default                                  : No
Forced                                   : No

Text #2
ID                                       : 5
Format                                   : UTF-8
Codec ID                                 : S_TEXT/UTF8
Codec ID/Info                            : UTF-8 Plain Text
Title                                    : Eng full
Language                                 : English
Default                                  : No
Forced                                   : No

Menu
00:00:00.000                             : en:One Question
00:03:08.563                             : en:Family Photos
00:04:24.890                             : en:Sy the Photo Guy
00:06:46.114                             : en:Beautiful Prints
00:11:17.385                             : en:Favorite Uncle
00:13:02.448                             : en:Good Thoughts
00:16:23.858                             : en:Argument
00:17:49.277                             : en:The Person You Least Suspect
00:19:36.342                             : en:Monday
00:22:13.040                             : en:Christmas Fantasy
00:24:18.957                             : en:In the Flesh
00:27:25.686                             : en:The Flow of Time
00:29:00.948                             : en:Crossing the Threshold
00:33:21.666                             : en:Soccer Practice
00:36:57.882                             : en:Food Court
00:41:25.566                             : en:Discrepancies
00:45:13.044                             : en:Sy Are You All Right?
00:49:40.186                             : en:Discovery
00:51:48.897                             : en:Leaving Savmart
00:55:32.829                             : en:What's Wrong with These People?
00:58:05.482                             : en:No One Is Secure
00:59:04.249                             : en:Sy's Dream
01:00:43.265                             : en:A Hunting Term
01:04:28.615                             : en:Threat Management
01:06:11.384                             : en:Search Warrant
01:07:32.048                             : en:Room Service
01:12:19.794                             : en:Room 511
01:16:03.517                             : en:Room 519
01:18:20.446                             : en:Pursuit
01:22:23.939                             : en:Reunion
01:24:04.289                             : en:Sy's Confession
01:29:18.353                             : en:End Titles


Джерела та подяки: ріп відео, оригінальні звук та субтитри - WIDDER (рутор); українська доріжка та саби теж взяті з релізу WIDDER'а, але зведення звуку, переклад субтитрів та постер - Lan, запис з ТБ - gig_Panas, фільмографії акторів та інформація про озвучення - Віктор (всі - Гуртом).

Особиста оцінка: 8 - мені сподобалося

ЗАЛИШАЙТЕСЬ ЯКОМОГА ДОВШЕ НА РОЗДАЧІ, НЕ ОБМЕЖУЙТЕ ШВИДКІСТЬ ВІДДАЧІ!

СКАЧАВ САМ - ДАЙ СКАЧАТИ ІНШИМ


Срібний реліз (на рейтинг впливає 50% завантаженого)
 Трекер:    Зареєстрований   

Завантажити / скачати фільм українською



відео для новачків



 Зареєстрований:   2013-05-14 22:13
 Розмір:   7.52 GB 
 Оцінка фільму:   5.7/10 (Голосів: 21)
   
Інші релізи
Drakoshka 
Localize Team
Localize Team


З нами з: 12.01.13
Востаннє: 03.12.16
Повідомлень: 66

2013-06-09 01:14  
Пригадую це кіно Happy Фільм дуже класний!!! Я б дала більше ніж IMDb, думаю 7,5 мінімум.
knowgod 
Новенький


З нами з: 05.12.09
Востаннє: 05.12.16
Повідомлень: 11

2013-06-15 23:08  
Власне про фільм.
Робін Вільямс - це справжній метр. Його герої здатні "витягнути" будь яке кіно. І це кіно теж, начебто, непогане.
Та в мене до нього претензії більш філософського плану - проблему сценарист і режисер виявили, герой Вільямса вказав на неї, що це дуже важливо. Проте, жодного натяку на вирішення, ніякого світла в кінці тунелю.
Не люблю такі фільми. І цей щойно витер :x

waldi-hurtom 
VIP


З нами з: 07.10.12
Востаннє: 03.12.16
Повідомлень: 611

2013-06-18 22:33  
to: knowgod Більшість шедеврів у мистецтві не дають однозначної відповіді - вони підштовхують людей думати, відчувати, мріяти, співпереживати. Соцреалізм помер, туди йому і дорога. А фільм пречудовий! 10 балів. Велика подяка за реліз!
hetzendorf 
Свій


З нами з: 23.07.15
Востаннє: 05.12.16
Повідомлень: 148

2016-04-08 23:52  
knowgod
Справа в тому, що проблему, окреслену у фільмі, кожен вирішує сам, як вважає потрібним, залежно від ситуації, універсального рецепту не існує.

Фільм крім того, що має 3 обов’язкові критерії для схвалення мною Wink (1) (цілісний непротирічний сюжет; зрозуміла ідея; її доступне розкриття), має класичну схему розвитку сюжету (зав’язка—кульмінація—розв’язка), що плине помірно й спокійно, без зайвих балачок і метушні й тим паче — маячневих та/або нудно-пустопорожніх біфуркацій і флюктуацій.

Однозначно 10-ка й відкладаю собі у колекцію.

Ваш часовий пояс: GMT + 2 Години

Нова тема   Відповісти