Завантажити та скачати торренти українською


Збірка промінців надії / Silver Linings Playbook (2012) 1080p Ukr/Eng | sub Eng

Нові коментарі

Нова тема   Відповісти
Автор Повідомлення
Omikron 
VIP


З нами з: 03.01.12
Востаннє: 30.11.16
Повідомлень: 297

2013-05-12 18:16  
Збірка промінців надії / Silver Linings Playbook (2012) 1080p Ukr/Eng | sub Eng



Жанр: драма, комедія
Країна: США



Кіностудія / кінокомпанія: The Weinstein Company, Mirage Enterprises
Режисер: Девід О. Рассел
Актори: Бредлі Купер, Дженіфер Лоуренс, Роберт Де Ніро, Джекі Вівер, Кріс Такер, Анупам Хер, Джон Ортіз, Джулія Стайлз та інші

Сюжет:
Часом доля нас випробовує. Іноді її удари бувають дошкульними і болючими, а бувають і такими, що вас можуть покласти в психіатричну лікарню. Саме такого удару отримав Пет Солатано. Тепер для нього головне знову стати на ноги і повернути свою дружину. Хай навіть він і досі одужав не до кінця та хай навіть дружина має проти нього судову заборону. За старання він заслуговує хоч промінчик надії і цей промінчик зватимуть Тіфані.


Перекладено та озвучено студією "Омікрон" на замовлення HURTOM.COM
У прокаті фільм демонструвався виключно російською мовою!


Тривалість: 02:02:05
Якість: 1080p
Відео:
кодек:
розмір кадру: 1920х800
бітрейт: 8.7 Мб/с

Аудіо # 1:
мова: українська | "Студія Омікрон" |
переклад: багатоголосий закадровий | Олекса Негребецький |
кодек: 5.1
бітрейт: 1510 кб/с

Аудіо # 2:
мова: англійська
переклад: оригінал
кодек: 5.1
бітрейт: 1510 кб/с

Субтитри:
мова: англійська
тип: програмні (м'які)
формат: *.srt

Скріншоти





Звіт MediaInfo
Format : Matroska
Format version : Version 2
File size : 10.0 GiB
Duration : 2h 2mn
Overall bit rate : 11.8 Mbps
Encoded date : UTC 2013-05-10 16:18:41
Writing application : mkvmerge v2.9.0 ('Moanin'') built on May 22 2009 17:46:31
Writing library : libebml v0.7.7 + libmatroska v0.8.1

Video
ID : 1
Format : AVC
Format/Info : Advanced Video Codec
Format profile : [email protected]
Format settings, CABAC : Yes
Format settings, ReFrames : 5 frames
Codec ID : V_MPEG4/ISO/AVC
Duration : 2h 2mn
Bit rate : 8 740 Kbps
Width : 1 920 pixels
Height : 800 pixels
Display aspect ratio : 2.40:1
Frame rate mode : Constant
Frame rate : 23.976 fps
Color space : YUV
Chroma subsampling : 4:2:0
Bit depth : 8 bits
Scan type : Progressive
Bits/(Pixel*Frame) : 0.237
Stream size : 7.25 GiB (72%)
Writing library : core 130 r2273 b3065e6
Encoding settings : cabac=1 / ref=5 / deblock=1:0:0 / analyse=0x3:0x133 / me=umh / subme=7 / psy=1 / psy_rd=1.00:0.00 / mixed_ref=1 / me_range=16 / chroma_me=1 / trellis=1 / 8x8dct=1 / cqm=0 / deadzone=21,11 / fast_pskip=0 / chroma_qp_offset=-2 / threads=12 / lookahead_threads=2 / sliced_threads=0 / nr=0 / decimate=1 / interlaced=0 / bluray_compat=0 / constrained_intra=0 / bframes=3 / b_pyramid=2 / b_adapt=2 / b_bias=0 / direct=3 / weightb=1 / open_gop=0 / weightp=2 / keyint=250 / keyint_min=23 / scenecut=40 / intra_refresh=0 / rc_lookahead=50 / rc=2pass / mbtree=1 / bitrate=8740 / ratetol=1.0 / qcomp=0.60 / qpmin=0 / qpmax=69 / qpstep=4 / cplxblur=20.0 / qblur=0.5 / ip_ratio=1.40 / aq=1:1.00
Language : English
Default : Yes
Forced : No

Audio #1
ID : 2
Format :
Format/Info : Digital Theater Systems
Codec ID : A_DTS
Duration : 2h 2mn
Bit rate mode : Constant
Bit rate : 1 510 Kbps
Channel(s) : 6 channels
Channel positions : Front: L C R, Side: L R, LFE
Sampling rate : 48.0 KHz
Bit depth : 24 bits
Compression mode : Lossy
Stream size : 1.29 GiB (13%)
Title : MVO Omikron Studio for Hurtom
Language : Ukrainian
Default : Yes
Forced : No

Audio #2
ID : 3
Format :
Format/Info : Digital Theater Systems
Codec ID : A_DTS
Duration : 2h 2mn
Bit rate mode : Constant
Bit rate : 1 510 Kbps
Channel(s) : 6 channels
Channel positions : Front: L C R, Side: L R, LFE
Sampling rate : 48.0 KHz
Bit depth : 24 bits
Compression mode : Lossy
Delay relative to video : 11ms
Stream size : 1.29 GiB (13%)
Language : English
Default : No
Forced : No

Text
ID : 4
Format : UTF-8
Codec ID : S_TEXT/UTF8
Codec ID/Info : UTF-8 Plain Text
Language : English
Default : No
Forced : No
Про озвучення

Українське озвучення створено студією "Омікрон" на замовлення Hurtom.com в рамках проекту "Хочеш кіно українською? Замовляй!"



Дякуємо користувачам, що фінансово допомогли проекту:
sigito, merlin_zaraza, kupchyk, urshula, sir_alecs, Бо, viter, fishMD, V_P_Staryk, Gxost,Axa_Rom, Владислав, kirtoff, yyoopp, sanyatyoma,SkiF, ntt, bursak, krambambula, OLENKA1980, andryk, drvich, swinomatka, Fizia, webmaker, tr, Dobromyr, igorsich, didivan,vt0352, panama58, whitemankpi,ORFEO, MisterR, Oleshko, бабулька, depeshmod, olha, Kremin, ms_taras, Risus, Sanitar, Golota, М_а_м_а_Й, yg, ingward, jedie, Руєвіт, TYRAEL, Yellow_man, stealth, Jaroslavik, Bucci, Dim-ON, xfsthe, tuzex, gazda, sash_kr, Bzick, чекірда, somnambula, lerk, LeSSeR09, yura_sh, Its, viter07, Snuryus, VJ, mrochkizm, wsk, cyberprostir, kampod,Knight219, shader, willian, mevasja, semag, avdanilova, 55strings, Impossible_arm, nemos, stalker_cv
Також дякуємо користувачам, що надали фінансову допомогу, але побажали бути анонімними.

Детальніше про проект.
Джерело:
За українізацію постеру подяка Gelios.

Фільми, які було озвучено на замовлення Гуртом (допоможіть озвучити наступні):
М: Місто шукає вбивцю (1931)
Чарівник країни Оз (1939)
Великий диктатор (1940)
Громадянин Кейн (1941)
Подвійна страховка (1944)
Це дивовижне життя (1946)
Викрадачі велосипедів (1948)
Рашьомон (1950)
Сім самураїв (1954)
У випадку вбивства телефонуйте "М" (1954)
Леді та Блудько (1955) нове
12 розгніваних чоловіків (1957)
Сьома печатка (1957)
На північ через північний захід (1959)
Більярдист (1961)
Охоронець (1961)
Вбити пересмішника (1962)
Людина, що вбила Ліберті Веленса (1962)
Вісім з половиною (1963)
Велика прогулянка (1966)
Як Ґрінч украв Різдво! (1966)
Випускник (1967)
Самурай (1967)
Одного разу на Дикому Заході (1968)
Коти-аристократи (1970)
Механічний апельсин (1971)
Навколо світу за 80 днів (1972) нове
Китайський квартал (1974)
Пролітаючи над гніздом зозулі (1975)
Телемережа (1976)
Енні Голл (1977) нове
Мисливець на оленів (1978)
Буття Брайана за Монті Пайтоном (1979)
Коли я буду там (1979)
Мангеттен (1979)
Людина-слон (1980)
Приборкання норовливого (1980)
Скажений бик (1980)
Підводний човен (1981)
Ґанді (1982)
Король комедії (1982) нове
Різдвяна історія (1983)
Амадей (1984)
Барва пурпурова (1985)
Бразилія (1985)
Ран (1985)
Великий мишачий детектив (1986)
Небесний замок Лапута (1986)
Акіра (1988)
Мій сусід Тоторо (1988)
Останній з могікан (1992)
Скажені пси (1992)
Шосе в нікуди (1997) нове
Американська історія Ікс (1998)
Страх і огида в Лас-Вегасі (1998)
Шоу Трумена (1998)
Догма (1999)
Магнолія (1999) нове
Сука любов (2000) нове
Нічия земля (2001)
Родина Тененбаумів (2001)
Тріо з Бельвіля (2003)
Труднощі перекладу (2003)
Бункер (2004)
Готель Руанда (2004)
Тренер Картер (2005)
Льодовиковий період 2 (2006)
Лабіринт Фавна (2006)
Людина з планети Земля (2007)
В тіні місяця (2007)
Голод (2008)
Іп Мен (2008)
Викрадена (2008)
Впусти мене (2008)
Хвиля (2008)
Містер Ніхто (2009)
13 вбивць (2010)
Бетмен: Під червоною маскою (2010)
Іп Мен 2 (2010)
Котяче життя (2010)
Позичайка Аріетті (2010)
Чорний Лебідь (2010)
Місто (2010)
Сенна (2010)
50/50 (2011)
Адвокат на лінкольні (2011)
Дерево життя (2011)
Опівночі в Парижі (2011)
Воїн (2011)
Драйв (2011)
Життя за один день (2011)
Укриття (2011)
Хижа в лісі (2011)
Рейд: Спокута (2011)
Акт вбивства (2012)
Арго (2012)
Безпека не гарантується (2012)
Викрадена 2 (2012)
Збірка промінців надії (2012)
Ернест і Селестіна (2012)
Звірі дикого Півдня (2012)
Лінкольн (2012)
Любов (2012)
Надійні хлопці (2012)
Паркер (2012)
Переваги скромників (2012)
Пліч-о-пліч (2012)
Полювання (2012)
Розірване коло (2012)
Суддя Дредд (2012)
Тридцять хвилин по півночі (2012)
Що б ви зробили (2012)
Американська афера (2013)
Виклик (2013)
Вона (2013)
Ворог (2013)
Всередині Л'ювіна Девіса (2013)
Джо (2013)
Зловісні мерці (2013)
Іда (2013)
Лок (2013)
Небраска (2013)
Неймовірна подорож містера Співета (2013) нове
Побічна дія (2013)
Перед північчю (2013)
Снігобур (2013)
Стокер (2013)
TPB: за межами клавіатури (2013)
Гниле місто (2013)
Бердмен (2014)
Вероніка Марс (2014)
Вроджена вада (2014) нове
Дика (2014) нове
Інтерв'ю (2014) нове
Святий Вінсент (2014)
Пісня моря (2014) нове
Призначення (2014) нове
Шеф-кухар (2014)


Авторський реліз (завантажувати можна без реєстрації)
 Трекер:    Зареєстрований   

Завантажити / скачати фільм українською



відео для новачків



 Зареєстрований:   2013-05-14 18:10
 Розмір:   10.03 GB 
 Оцінка фільму:   9.8/10 (Голосів: 16)
   
bot 
робот


З нами з: 30.09.07
Востаннє: 26.05.05
Повідомлень: 15975

2013-05-14 18:44  
Тему перенесено з Ріпи від Омікрону до форуму Фільми в HD


Omikron

Прокурор 
VIP


З нами з: 24.06.13
Востаннє: 03.12.16
Повідомлень: 343

2014-06-16 02:33  
чудовий фільмHappy
kawe2002 
Новенький


З нами з: 27.02.12
Востаннє: 29.11.16
Повідомлень: 1

2016-02-21 00:17  
Додайте руху, панове!
Ваш часовий пояс: GMT + 2 Години

Нова тема   Відповісти