Завантажити та скачати торренти українською


Квартет Володимира Ліхошва та Сергія Овсяникова - Swing Brothers (2008) [WV] | Jazz

Нові коментарі

Нова тема   Відповісти
Останній раз роздавалося NataDako (2016-12-05)
Автор Повідомлення
ssTAss 
Модератор музики


З нами з: 05.07.08
Востаннє: 05.12.16
Повідомлень: 10941

2013-05-12 12:57  
Квартет Володимира Ліхошва та Сергія Овсяникова - Swing Brothers (2008) [WV] | Jazz

Квартет Володимира Ліхошва та Сергія Овсяникова - Swing Brothers (2008) [WV] | Jazz


Стиль: Jazz
Країна, місто: Україна, Київ
Видавець: Comp Music
Виконавці:
Сергій Овсяников - гітара
Володимир Ліхошва - гітара
Андрій Арнаутов - контрабас
Олексій Фантаєв - ударні
Пісні:
    01. Коник-стрибунець (4:37)
    02. Босоніж (5:12)
    03. Весела річка (4:00)
    04. Вояж (3:35)
    05. Діана (6:40)
    06. Той, що танцює під дощем (4:40)
    07. Танець кохання (5:53)
    08. Ледачий блюз (3:29)
log
Exact Audio Copy V1.0 beta 3 from 29. August 2011

EAC extraction logfile from 15. March 2013, 15:16

Vladimir Likhoshva-Sergey Ovsianikov quartet / Swing Brothers

Used drive : SAMSUNG CD-ROM SC-152C Adapter: 0 ID: 0

Read mode : Secure
Utilize accurate stream : Yes
Defeat audio cache : Yes
Make use of C2 pointers : No

Read offset correction : 600
Overread into Lead-In and Lead-Out : No
Fill up missing offset samples with silence : Yes
Delete leading and trailing silent blocks : No
Null samples used in CRC calculations : Yes
Used interface : Native Win32 interface for Win NT & 2000

Used output format : User Defined Encoder
Selected bitrate : 1024 kBit/s
Quality : High
Add ID3 tag : No
Command line compressor : C:\Blade\Programs\wavpack-4.60.1\wavpack.exe
Additional command line options : -hlmx2 %source% %dest%

TOC of the extracted CD

Track | Start | Length | Start sector | End sector
---------------------------------------------------------
1 | 0:00.00 | 4:37.11 | 0 | 20785
2 | 4:37.11 | 5:12.35 | 20786 | 44220
3 | 9:49.46 | 4:00.28 | 44221 | 62248
4 | 13:49.74 | 3:34.64 | 62249 | 78362
5 | 17:24.63 | 6:40.22 | 78363 | 108384
6 | 24:05.10 | 4:39.72 | 108385 | 129381
7 | 28:45.07 | 5:53.19 | 129382 | 155875
8 | 34:38.26 | 3:28.74 | 155876 | 171549

Range status and errors

Selected range

Filename C:\Blade\music\work\Best Ukrainian Musicians Comp Jazz\Vladimir Likhoshva-Sergey Ovsianikov quartet - 2008 - Swing Brothers\Vladimir Likhoshva-Sergey Ovsianikov quartet - 2008 - Swing Brothers.wav

Peak level 99.9 %
Extraction speed 1.2 X
Range quality 99.9 %
Test CRC 5843921E
Copy CRC 5843921E
Copy OK

No errors occurred

AccurateRip summary

Track 1 not present in database
Track 2 not present in database
Track 3 not present in database
Track 4 not present in database
Track 5 not present in database
Track 6 not present in database
Track 7 not present in database
Track 8 not present in database

None of the tracks are present in the AccurateRip database

End of status report

---- CUETools DB Plugin V2.1.3

[CTDB TOCID: 2oa7ENokxwGI5d19r2jieqKN_f8-] disk not present in database, Submit result: database access error: The request was aborted: The request was canceled.

==== Log checksum A5B7C807B24E539AE5B7AD8AA5FBBFA7B812E0F6F26927D907784084A144DB92 ====
Тривалість: 00:38:07
Мова: відсутня
Аудіо-кодек: WavPack
Бітрейт: 818 кб/с
Джерело: нетлаб
Додаткова інформація:
Схоже, в даному випадку можна говорити вже про певну лінію. Адже і попередня робота Сергія Овсяникова – сольний альбом "Наречена" – теж була записана, що називається, "живцем у студії". Але цього разу бачимо вже не сольний, а спільний проект – квартет Ліхошви-Овсяникова (гітарист Володимир Ліхошва, як відомо, називає себе учнем Овсяникова). Отже, цього разу в центрі проекту стоять одразу двоє гітаристів. І – в тандемі вони звучать дуже переконливо. Якщо вже описувати словами, то відчуття таке, що ця музика – тече. Вільно, спокійно – та жодним чином не повільно, а застояною водою тут не пахне і поготів. Обидва музиканти розмовляють між собою – і це саме розмова, живе спілкування, у якому ясно чутно і уважність, і повагу до співрозмовника. Втім, насправді це діалог на чотирьох – неодмінно слід віддати належне і ритм-секції. Андрій Арнаутов та Олексій Фантаєв ненав’язливо, але чітко й упевнено окреслюють русло, в якому і тече ця музики так легко, так приязно. Тут ніхто не "гонить хвилю" – мабуть, саме тому кожен встигає сказати своє вагоме слово, і не раз. Слухати подібне спілкування – задоволення.
Антон Йожик Лейба


Якщо Ви справді бажаєте підтримати українське - після прослуховування, якщо музика вам сподобалась,
придбайте ліцензійний диск.
Підтримаймо вітчизняних виконавців!


Срібний реліз (на рейтинг впливає 50% завантаженого)
 Трекер:    Зареєстрований   

Завантажити / скачати українську музику



відео для новачків



 Зареєстрований:   2013-05-12 12:57
 Розмір:   275 MB 
 Оцінка музики:   6/10 (Голосів: 7)
   
Ваш часовий пояс: GMT + 2 Години

Нова тема   Відповісти