Завантажити та скачати торренти українською


Зоряний пил / Stardust (2007) AVC

Нові коментарі

Нова тема   Відповісти
Автор Повідомлення
Drool 
VIP


З нами з: 17.04.10
Востаннє: 05.12.16
Повідомлень: 1262

2013-05-11 16:32  
Зоряний пил / Stardust (2007) AVC

Жанр: фентезі, мелодрама, пригоди, сімейний
Країна: Велика Британія, США, Ісландія



Кінокомпанія: Paramount Pictures, Marv Films ,Di Bonaventura Pictures
Режисер: Меттью Вон
Актори: Чарлі Кокс, Клер Дейнс, Роберт Де Ніро, Мішель Пфайффер, Пітер О’Тул, Сієнна Міллер, Джейсон Флемінг, Сара Александр, Руперт Еверет, Натаніель Паркер, Марк Стронг, Марк Хіп, Адам Бакстон, Джуліан Райнд-Татт, Девід Валльямс, Кейт Магован, Іен Маккеллен

Сюжет:
Дуже нетиповий зразок фентезі, якщо можна його так назвати. Швидше його слід визнати казкою для дорослих або навіть казкою з елементами для дорослих. Вдале втілення казки-феєрії з любовною історією, в якій окрім традиційоного набору сліз горя, печалі, а потім щастя та радості, присутня ще гарна доля веселенького гуморця.

Центральне сюжетне ядро – юнак шукає своє кохання – дійсно казкове, але пов’язане з питаннями дорослішання, позбавлення ілюзій, вміння постояти за себе і відстояти своє щастя. Вистачає елементів пародійних, які ще більш віддаляють стрічку від казки звичайної – це й мудрий король О’Тул (навіть якби серед запрошених зірок він був один, заради його крихітної ролі це було б варто дивитись), який із надзвичайним задоволенням спостерігає за битвою за трон своїх синів, що жадають влади, і певні деталі спроб відьми втримати молодість за будь-яку ціну, і, звичайно ж, капітан повітряних піратів (у виконанні неперевершеного Роберта Де Ніро).


Тривалість: 02:07:41
Якість: AVC
Відео:
кодек:
розмір кадру: 1024x426
бітрейт: 1647 кб/с

Аудіо:
мова: українська
переклад: професійний дубльований
кодек: 5.1
бітрейт: 448 кб/с

Джерело озвучення:
MediaInfo
General
Unique ID : 49966646702329821686459296003510172203 (0x259739E26015E6F4F6FFFB973E12FA2B)
Complete name : /mnt/disk_d/Video/Films/Stardust.2007.Ukr.Dub.AVC.mkv
Format : Matroska
File size : 1.87 GiB
Duration : 2h 7mn
Overall bit rate : 2 094 Kbps
Movie name : Зоряний пил / Stardust (2007) AVC | video by rulya74
Encoded date : UTC 2013-05-11 13:09:34
Writing application : mkvmerge v4.8.0 ('I Got The...') built on Aug 22 2011 13:16:28
Writing library : libebml v1.2.0 + libmatroska v1.1.0

Video
ID : 1
Format : AVC
Format/Info : Advanced Video Codec
Format profile : [email protected]
Format settings, CABAC : Yes
Format settings, ReFrames : 12 frames
Codec ID : V_MPEG4/ISO/AVC
Duration : 2h 7mn
Bit rate : 1 647 Kbps
Width : 1 024 pixels
Height : 426 pixels
Display aspect ratio : 2.40:1
Frame rate : 23.976 fps
Color space : YUV
Chroma subsampling : 4:2:0
Bit depth : 8 bits
Scan type : Progressive
Bits/(Pixel*Frame) : 0.157
Stream size : 1.43 GiB (77%)
Title : Зоряний пил / Stardust (2007) AVC | video by rulya74
Writing library : core 116 r2074 2641b9e
Encoding settings : cabac=1 / ref=12 / deblock=1:-3:-3 / analyse=0x3:0x113 / me=umh / subme=10 / psy=1 / psy_rd=1.00:0.00 / mixed_ref=1 / me_range=48 / chroma_me=1 / trellis=2 / 8x8dct=1 / cqm=0 / deadzone=21,11 / fast_pskip=1 / chroma_qp_offset=-2 / threads=3 / sliced_threads=0 / nr=0 / decimate=1 / interlaced=0 / bluray_compat=0 / constrained_intra=0 / bframes=12 / b_pyramid=2 / b_adapt=1 / b_bias=0 / direct=3 / weightb=1 / open_gop=0 / weightp=2 / keyint=250 / keyint_min=23 / scenecut=40 / intra_refresh=0 / rc=2pass / mbtree=0 / bitrate=1647 / ratetol=1.0 / qcomp=0.60 / qpmin=10 / qpmax=51 / qpstep=4 / cplxblur=20.0 / qblur=0.5 / ip_ratio=1.40 / pb_ratio=1.30 / aq=1:1.00

Audio
ID : 2
Format : AC-3
Format/Info : Audio Coding 3
Mode extension : CM (complete main)
Codec ID : A_AC3
Duration : 2h 7mn
Bit rate mode : Constant
Bit rate : 448 Kbps
Channel(s) : 6 channels
Channel positions : Front: L C R, Side: L R, LFE
Sampling rate : 48.0 KHz
Bit depth : 16 bits
Compression mode : Lossy
Stream size : 409 MiB (21%)
Title : Рідна мова (дубляж) | 448 kbps
Language : Ukrainian
Скріншоти








Джерело: відеоряд взято з ріпу
Особиста оцінка: 9 - давно не бачив настільки якісне кіно


 Трекер:    Зареєстрований   

Завантажити / скачати фільм українською



відео для новачків



 Зареєстрований:   2013-05-11 16:32
 Розмір:   1.87 GB 
 Оцінка фільму:   10/10 (Голосів: 24)
   
Інші релізи
   Зоряний пил / Stardust (2007) 2xUkr/Eng patriot2305  12 / 3   2.75 GB   2014-01-18 00:24 
   Зоряний пил / Stardust (2007) patriot2305  6 / 0   1.63 GB   2013-12-06 20:51 
   Зоряний пил / Stardust (2007) 720p Ukr/Eng | sub Multi NeetScrool  1 / 0   5.96 GB   2013-11-30 08:24 
   Зоряний Пил / Stardust (2007) 1080p Ukr | Sub Ukr/Eng Tenax555  6 / 0   8.57 GB   2009-08-29 10:41 
nkbss 
Частий відвідувач


З нами з: 13.03.08
Востаннє: 04.12.16
Повідомлень: 26

2013-05-11 19:39  
Залюбки ще раз подивлюся. Фільм одозначо вартий уваги
Blade2010 
Новенький


З нами з: 12.04.10
Востаннє: 01.12.16
Повідомлень: 18

2015-03-03 20:21  
станьте на роздачу
Ваш часовий пояс: GMT + 2 Години

Нова тема   Відповісти