Завантажити та скачати торренти українською


На голці / Trainspotting (1996) 720p Ukr/Eng

Нові коментарі

Нова тема   Відповісти
Автор Повідомлення
TNT.KOT 
Відео Гуртом - субтитрування
Відео Гуртом - субтитрування


З нами з: 17.03.12
Востаннє: 09.12.16
Повідомлень: 116

2013-05-11 10:21  
На голці / Trainspotting (1996) 720p Ukr/Eng

Жанр: драма, кримінал,психоделіка
Країна: Великобританія

Top 250 #146

Кінокомпанія: Channel Four Films
Режисер: Денні Бойл (Danny Boyle)
Актори: Еван МакҐреґор (Ewan McGregor), Евен Бреммер (Ewen Bremner), Джонні Лі Міллер (Jonny Lee Miller), Кевін МакКідд (Kevin McKidd), Роберт Карлайл (Robert Carlyle), Келлі Макдональд (Kelly Macdonald), Пітер Маллен (Peter Mullan) та інші.

Сюжет:
У фільмі описується історія чотирьох друзів, яких пов'язує лише загальна залежність від наркотиків, яка доводить кожного окремо до останньої межі. Оповідання ведеться від імені типового «героя нашого часу», молодого шотландця Марка Рентона, що намагається стабільно «зав'язати» і заодно якось влаштуватися в дорослому житті. Паралельно вимальовується коло його друзів і знайомих, таких же нероб, невдах і наркоманів. Несподіване збагачення надає Марку, зрештою, можливість змінити свій життєвий шлях. Незважаючи на безліч сильних натуралістичних сцен, у фільмі багато гумору і неординарних кінематографічних ходів.
Цікаві Факти
Ірвін Уелш з'явився в маленькій ролі наркодилера.
Спочатку книга Ірвіна Велша стала театральною постановкою. Рентона в ній зіграв Юен Бремнер, у фільмі виконав роль Кочеріжки.
Хоча дія фільму відбувається в Единбурзі, більшість сцен були зняті в Глазго.
В Америці перші 20 хвилин фільму були дубльовані - щоб глядачам був зрозумілий шотландський акцент.
Розписи на стіні клубу «Вулкан» подібні до тих, що на стінах бару «Молоко» з «Заводний апельсин» (1971) Стенлі Кубрика.
Серед малюнків можна також розглядати Роберта Де Ніро і Джоді Фостер у «Таксисті» (1976) Мартіна Скорсезе.
Кайфолом просто одержимий Джеймсом Бондом. Іронія в тому, що зіграв його Джонні Лі Міллер - онук Бернарда Лі, виконавця ролі М в «Бондіаді» до 1979 року.
Рентон читає книгу про голлівудській зірці Монтгомері Кліфт, який, як відомо, сам страждав пристрастю до наркотиків всіх видів.
Офіцер безпеки в магазині на початку фільму - це Джон Ходж, автор сценарію фільму.
Остання сцена, де Кочерижка дістає гроші з шафки, вельми нагадує схожу сцену в «Одного разу в Америці» (1984).
Щоб зіграти людину, яка сидить на наркотиках, Макгрегору довелося сидіти на дієті, яка виключала будь-які алкогольні та молочні продукти. Лише через два місяці йому вдалося скинути вагу.
В Австралії зафіксували своєрідний рекорд - «На голці» став фільмом, який найчастіше крали в відеомагазинах.
«На голці» був визнаний кращим британським фільмом за останні 60 років, за результатами опитування, приуроченого до святкування 60-річчя з дня сходження королеви Єлизавети II на британський престол. Голосування проводилося компанією HMV протягом місяця, в ньому взяли участі понад 24 тисяч жителів країни.
Продюсер:Ендрю Макдональд
Автор сценарію:Джон Ходж
Бюджет:3500000 £
Саундтрек
Iggy Pop — Lust For Life
Brian Eno — Deep Blue Day
Primal Scream — Trainspotting
Sleeper — Atomic
New Order — Temptation
Iggy Pop — Nightclubbing
Blur — Sing
Lou Reed — Perfect Day
Pulp — Mile End
Bedrock Featuring KYO — For What You Dream Of
Elastica — 2 : 1
Leftfield — A Final Hit
Underworld — Born Slippy
Damon Albarn — Closet Romantic
Тривалість: 01:33:50
Якість: Remux 1080p
Відео:
кодек:
розмір кадру: 1280 х 720
бітрейт: 3000 кб/с

Аудіо # 1:
мова: українська
переклад: двоголосий закадровий
кодек: 5.1
бітрейт: 384 кб/с

Аудіо # 2:
мова: англійська
переклад: оригінал
кодек: 5.1
бітрейт: 448 кб/с
MediaInfo
General
Unique ID : 199190892578211947903273683571771309218 (0x95DAC53D4BE5B16FAF6A3CDEAAE5FCA2)
Complete name : E:\kino\mobi\На голці Trainspotting (1996) (2).mkv
Format : Matroska
Format version : Version 2
File size : 2.51 GiB
Duration : 1h 33mn
Overall bit rate : 3 834 Kbps
Encoded date : UTC 2013-05-11 17:20:58
Writing application : mkvmerge v5.0.0 ('Die Wahre Liebe') built on Sep 25 2011 20:33:49
Writing library : libebml v1.2.2 + libmatroska v1.3.0

Video
ID : 1
Format : AVC
Format/Info : Advanced Video Codec
Format profile : [email protected]
Format settings, CABAC : Yes
Format settings, ReFrames : 4 frames
Codec ID : V_MPEG4/ISO/AVC
Duration : 1h 33mn
Bit rate : 3 000 Kbps
Width : 1 280 pixels
Height : 720 pixels
Display aspect ratio : 16:9
Frame rate : 23.976 fps
Color space : YUV
Chroma subsampling : 4:2:0
Bit depth : 8 bits
Scan type : Progressive
Bits/(Pixel*Frame) : 0.202
Stream size : 1.92 GiB (76%)
Writing library : core 98 r1649 20cbe10
Encoding settings : cabac=1 / ref=3 / deblock=1:-2:-2 / analyse=0x3:0x113 / me=hex / subme=6 / psy=1 / psy_rd=1.00:0.15 / mixed_ref=1 / me_range=16 / chroma_me=1 / trellis=1 / 8x8dct=1 / cqm=0 / deadzone=21,11 / fast_pskip=0 / chroma_qp_offset=-3 / threads=3 / sliced_threads=0 / nr=0 / decimate=1 / interlaced=0 / constrained_intra=0 / bframes=3 / b_pyramid=2 / b_adapt=1 / b_bias=0 / direct=1 / weightb=1 / weightp=2 / keyint=250 / keyint_min=25 / scenecut=40 / intra_refresh=0 / rc_lookahead=30 / rc=2pass / mbtree=1 / bitrate=3000 / ratetol=1.0 / qcomp=0.60 / qpmin=10 / qpmax=51 / qpstep=4 / cplxblur=20.0 / qblur=0.5 / ip_ratio=1.40 / aq=1:1.00
Language : English
Default : No
Forced : No

Audio #1
ID : 2
Format : AC-3
Format/Info : Audio Coding 3
Mode extension : CM (complete main)
Codec ID : A_AC3
Duration : 1h 33mn
Bit rate mode : Constant
Bit rate : 384 Kbps
Channel(s) : 6 channels
Channel positions : Front: L C R, Side: L R, LFE
Sampling rate : 48.0 KHz
Bit depth : 16 bits
Compression mode : Lossy
Stream size : 258 MiB (10%)
Default : No
Forced : No

Audio #2
ID : 3
Format : AC-3
Format/Info : Audio Coding 3
Mode extension : CM (complete main)
Codec ID : A_AC3
Duration : 1h 33mn
Bit rate mode : Constant
Bit rate : 448 Kbps
Channel(s) : 6 channels
Channel positions : Front: L C R, Side: L R, LFE
Sampling rate : 48.0 KHz
Bit depth : 16 bits
Compression mode : Lossy
Stream size : 301 MiB (12%)
Language : English
Default : No
Forced : No
Скріншоти



Подяка:robotron005 за звукову доріжку

Джерело: &
Особиста оцінка: 9 - «Вибери роботу. Обери свій перший будинок. Обери майбутнє. Тільки на біса тобі це треба? »


Срібний реліз (на рейтинг впливає 50% завантаженого)
 Трекер:    Зареєстрований   

Завантажити / скачати фільм українською



відео для новачків



 Зареєстрований:   2013-05-12 12:46
 Розмір:   2.51 GB 
 Оцінка фільму:   9.9/10 (Голосів: 24)
   
Інші релізи
   На голці / Trainspotting (1996) Ukr/Eng robotron005  5 / 0   1.58 GB   2013-02-03 14:18 
omm 
Відео Гуртом - фільмокрай
Відео Гуртом - фільмокрай


З нами з: 12.06.12
Востаннє: 09.12.16
Повідомлень: 2066

2013-05-11 10:28  
Російську не можна! Піде в смітник
rkononenko 
Відео Гуртом - субтитрування
Відео Гуртом - субтитрування


З нами з: 24.02.09
Востаннє: 09.12.16
Повідомлень: 1140

2013-05-11 12:15  
Виріє обидві російські субтитри та рос. доріжку (або хоч додай українські субтитри)
ratbol 
Модератор HD


З нами з: 03.02.09
Востаннє: 09.12.16
Повідомлень: 1088

2013-05-11 18:20  
Дозволена тільки українська доріжка, оригінальна, та коментарі.
TNT.KOT написано:
Bits/(Pixel*Frame) : 0.136

Додати mini до назви.

bot 
робот


З нами з: 30.09.07
Востаннє: 26.05.05
Повідомлень: 16042

2013-05-12 09:58  
Тему перенесено з Неоформлене відео до форуму Фільми в HD


ratbol

natalka-poltavka95 
Свій


З нами з: 25.09.12
Востаннє: 28.10.16
Повідомлень: 125

2013-05-12 13:02  
Виправте, будь ласка:
TNT.KOT написано:
доводящая кожного окремо

яка доводить
TNT.KOT написано:
стабільно що намагається «зав'язати»

що намагається стабільно
Confused
Дякую.

Ваш часовий пояс: GMT + 2 Години

Нова тема   Відповісти