Завантажити та скачати торренти українською


Спадок Борна / The Bourne Legacy (2012) 720p-mini Ukr/Eng | Sub Ukr/Eng

Нові коментарі

Нова тема   Відповісти
Автор Повідомлення
BOOGud 
VIP


З нами з: 06.03.12
Востаннє: 11.11.16
Повідомлень: 907

2013-05-10 17:59  
Спадок Борна / The Bourne Legacy (2012) 720p-mini Ukr/Eng | Sub Ukr/Eng

Спадок Борна / The Bourne Legacy (2012) 720p-mini Ukr/Eng | Sub Ukr/Eng


Жанр: екшн, пригодницький, бойовик
Країна: США



Кінокомпанія: Universal Pictures
Режисер: Тоні Гілрой
Актори: Джеремі Реннер, Рейчел Вайс, Едвард Нортон, Джоан Аллен, Альберт Фінні, Скотт Гленн, Стейсі Кіч, Донна Мерфі, Майкл Чернус, Корі Столл.

Сюжет:
У грі завжди кілька фігур. Одна з них - Джейсон Борн, інша - досконалий агент Аарон Крос. Їх можливості безмежні. Але навіть у ідеальної зброї бувають збої ...


Тривалість: 02:15:02
Якість:
Відео:
кодек:
розмір кадру: 1 280 х 536
бітрейт: 2750 кб/с

Аудіо # 1:
мова: українська
переклад: двоголосий закадровий | UAVoice
кодек: 2.0
бітрейт: 448 кб/с

Переклад: BOOGud.
Озвучка: Дмитро Урсуляк та Людмила Швець, Леонід Статівка(у кількох сценах)
Монтаж та робота зі звуком: Дмитро Урсуляк(BOOGud).

Аудіо # 2:
мова: Англійська
переклад: оригінал
кодек: 5.1
бітрейт: 448 кб/с

Субтитри:
мова: українська (BOOGud)
тип: програмні (м'які)
формат: *.srt

Субтитри:
мова: англійська
тип: програмні (м'які)
формат: *.srt
MediaInfo
General
Unique ID : 185618426614258474974090804856840512915 (0x8BA4CF00B6C78A468D2334818893E593)
Complete name : J:\!!!!!Dvd\!boooooorn\!The.Bourne.Legacy.2012.UKR.UAVoice.HD.720.mkv
Format : Matroska
Format version : Version 4 / Version 2
File size : 3.36 GiB
Duration : 2h 15mn
Overall bit rate : 3 562 Kbps
Encoded date : UTC 2013-05-10 15:37:56
Writing application : mkvmerge v6.2.0 ('Promised Land') built on Apr 28 2013 12:22:01
Writing library : libebml v1.3.0 + libmatroska v1.4.0

Video
ID : 1
Format : AVC
Format/Info : Advanced Video Codec
Format profile : [email protected]
Format settings, CABAC : Yes
Format settings, ReFrames : 4 frames
Codec ID : V_MPEG4/ISO/AVC
Duration : 2h 15mn
Bit rate : 2 595 Kbps
Nominal bit rate : 2 750 Kbps
Width : 1 280 pixels
Height : 536 pixels
Display aspect ratio : 2.40:1
Frame rate mode : Constant
Frame rate : 23.976 fps
Color space : YUV
Chroma subsampling : 4:2:0
Bit depth : 8 bits
Scan type : Progressive
Bits/(Pixel*Frame) : 0.158
Stream size : 2.45 GiB (73%)
Writing library : core 125 r2200bm 999b753
Encoding settings : cabac=1 / ref=3 / deblock=1:-1:-1 / analyse=0x3:0x113 / me=hex / subme=7 / psy=1 / psy_rd=1.00:0.15 / mixed_ref=1 / me_range=16 / chroma_me=1 / trellis=1 / 8x8dct=1 / cqm=0 / deadzone=21,11 / fast_pskip=1 / chroma_qp_offset=-3 / threads=3 / lookahead_threads=1 / sliced_threads=0 / nr=0 / decimate=1 / interlaced=0 / bluray_compat=0 / constrained_intra=0 / bframes=3 / b_pyramid=2 / b_adapt=1 / b_bias=0 / direct=1 / weightb=1 / open_gop=0 / weightp=2 / keyint=250 / keyint_min=23 / scenecut=40 / intra_refresh=0 / rc_lookahead=40 / rc=abr / mbtree=1 / bitrate=2750 / ratetol=1.0 / qcomp=0.60 / qpmin=0 / qpmax=69 / qpstep=4 / ip_ratio=1.40 / aq=1:1.00
Default : Yes
Forced : No

Audio #1
ID : 2
Format : AC-3
Format/Info : Audio Coding 3
Mode extension : CM (complete main)
Format settings, Endianness : Big
Codec ID : A_AC3
Duration : 2h 15mn
Bit rate mode : Constant
Bit rate : 448 Kbps
Channel(s) : 2 channels
Channel positions : Front: L R
Sampling rate : 48.0 KHz
Bit depth : 16 bits
Compression mode : Lossy
Stream size : 433 MiB (13%)
Title : Українська(UAVoice)
Language : Ukrainian
Default : No
Forced : No

Audio #2
ID : 3
Format : AC-3
Format/Info : Audio Coding 3
Mode extension : CM (complete main)
Format settings, Endianness : Big
Codec ID : A_AC3
Duration : 2h 15mn
Bit rate mode : Constant
Bit rate : 448 Kbps
Channel(s) : 6 channels
Channel positions : Front: L C R, Side: L R, LFE
Sampling rate : 48.0 KHz
Bit depth : 16 bits
Compression mode : Lossy
Stream size : 433 MiB (13%)
Title : Англійська(оригінал)
Language : English
Default : Yes
Forced : No

Text #1
ID : 4
Format : UTF-8
Codec ID : S_TEXT/UTF8
Codec ID/Info : UTF-8 Plain Text
Title : Українські
Language : Ukrainian
Default : Yes
Forced : No

Text #2
ID : 5
Format : UTF-8
Codec ID : S_TEXT/UTF8
Codec ID/Info : UTF-8 Plain Text
Title : Англійські
Language : English
Default : No
Forced : No
Скріншоти


















































Подяка за постер пану Vetal-XL.

Джерело: uavoice.at.ua & ua-torrent.net
Особиста оцінка: 10 - без зайвих вагань рекомендую всім!


Авторський реліз (завантажувати можна без реєстрації)
 Трекер:    Зареєстрований   

Завантажити / скачати фільм українською



відео для новачків



 Зареєстрований:   2013-05-10 17:59
 Розмір:   3.36 GB 
 Оцінка фільму:   8.8/10 (Голосів: 29)
   
Інші релізи
BusterUa 
Новенький


З нами з: 12.06.12
Востаннє: 23.10.16
Повідомлень: 5

2013-05-11 16:09  
Чому немає української аудіодоріжки? Працюють тільки українськи субтитри...
waldi-hurtom 
VIP


З нами з: 07.10.12
Востаннє: 09.12.16
Повідомлень: 613

2013-05-12 14:05  
BusterUa Мабуть, треба спробувати інший плеєр. В мене все гаразд. Коли в мене підгальмовує або відсутній звук у штатному плеєрі VLC, я використовую BSPlayer.
BOOGud 
VIP


З нами з: 06.03.12
Востаннє: 11.11.16
Повідомлень: 907

2013-05-12 15:28  
замінив скріншоти на відповідні (1 280 х 536 )

BusterUa написано:
Чому немає української аудіодоріжки? Працюють тільки українськи субтитри...

вона є і вона перша, але за замовчуванням стоїть англійська, і це вже залежить від плеєра яким ви користуєтесь або його налаштувань, просто виберіть у списку українську доріжку або ж просто:
waldi-hurtom написано:
треба спробувати інший плеєр

bodia87 
Відео Гуртом - фільмокрай
Відео Гуртом - фільмокрай


З нами з: 24.01.09
Востаннє: 10.12.16
Повідомлень: 468

2013-05-12 20:10  
Ех, ще б Деймона сюди, було б суперово !
masya_anatoliy 
Новенький


З нами з: 18.01.13
Востаннє: 02.12.16
Повідомлень: 2

2013-05-13 11:37  
Озвучка просто жахлива!!! заради бога припиніть озвучувати...
Dj_Vetaly 
Свій


З нами з: 24.10.11
Востаннє: 19.07.16
Повідомлень: 63

2013-05-13 17:36  
masya_anatoliy
А чим вам не сподобалась озвучка???

rumumba 
Новенький


З нами з: 24.01.10
Востаннє: 21.11.16
Повідомлень: 16

2015-12-30 16:21  
Офіційний дубляж відсутній??
olexlviv 
Частий відвідувач


З нами з: 15.11.08
Востаннє: 09.12.16
Повідомлень: 35

2016-08-23 21:34  
Шикарний фільм! скільки разів вже його дивився, нітрохи не обридає, а таке буває ну дуже не часто Happy Дрібні зауваження до нашої озвучки задоволенню від перегляду не перешкоджають. Не дивно, що після його перегляду Мет Деймон перехотів більше не зніматись в ролі Борна
don pedro 
Попереджень: 1
Попереджень: 1 


З нами з: 29.06.11
Востаннє: 10.12.16
Повідомлень: 8780

2016-08-23 21:37  
Цей фільм, без сумніву, значно кращий, аніж нова частина з Деймоном.
Ваш часовий пояс: GMT + 2 Години

Нова тема   Відповісти