Завантажити та скачати торренти українською


Цілісно-металева оболонка / Full Metal Jacket (1987) 720p Ukr/Eng

Нові коментарі

Нова тема   Відповісти
Автор Повідомлення
TNT.KOT 
Відео Гуртом - субтитрування
Відео Гуртом - субтитрування


З нами з: 17.03.12
Востаннє: 03.12.16
Повідомлень: 116

2013-05-10 12:32  
Цілісно-металева оболонка / Full Metal Jacket (1987) 720p Ukr/Eng



Жанр: Військовий, драма
Країна: США, Великобританія

#81

Кінокомпанія: Warner Brothers
Режисер: Стенлі Кубрік
Актори: Метью Модайн, Адам Болдуін, Вінсент Д`Онофріо, Р. Лі Ермі, Доріан Хервуд, Кевін Мейджор Ховард, Арлісс Ховард, Ед О`Росс, Джон Террі, Кірон Джеккініс

Сюжет:
Американська база підготовки новобранців корпусу морської піхоти. Найжорстокіша, нелюдська система покликана перетворити домашніх хлопчаків в натренованих холоднокровних убивць. Їх готують до війни у В'єтнамі, де їм доведеться часто ставити собі запитання «Хіба війна - це не пекло?», А інакше просто неможливо вбивати кожен день, не розуміючи, для чого це?
Нагороди та номінації
David di Donatello-Кращий продюсер зарубіжного фільму Стенлі Кубрик Перемога
Оскар-Кращий сценарій Стенлі Кубрик, Майкл Герр, Густав Хесфорд номінація
Золотий глобус-Кращий актор другого плану Лі Ермей-Номінація
Саундтрек
Johnnie Wright — Hello Vietnam
The Dixie Cups — Chapel of Love
Sam the Sham & The Pharaohs — Wooly Bully
Chris Kenner — I Like It Like That
Nancy Sinatra — «These Boots Are Made For Walkin'»
The Trashmen — Surfin' Bird
The Goldman Band — The Marines' Hymn
The Rolling Stones — «Paint It Black»
Інформація
Продюсер
Стенлі Кубрик
Автори сценаріюСтенлі Кубрик
Майкл Херр
Оператор Дуглас Мілсом
Композитор Вивиан Кубрик
Бюджет 17 млн ​​$
Цікаві Факти
Насправді Р. Лі Ермі - колишній інструктор з бойової підготовки, але на знімальному майданчику виступав в якості консультанта, але Стенлі Кубрику так сподобалися його добірні лайки що він одразу запропонував йому роль сержанта Хартмана.
Стенлі Кубрик спеціально не хотів брати у фільм зірок першої величини - по-перше, щоб не роздувати бюджет, а по-друге, тим самим він хотів показати «звичайних» хлопців.
Назва означає вид боєприпасів, що використовуються в стрілецькій зброї (оболочечная куля).
Вінсент Д'Онофріо набрав 70 фунтів (~ 31.8 кг) для ролі Гомера Кучі.
Ім'я «Гомер Куча» виникло в сценарії фільму не випадково - з 1964 по 1969 рік, в самий розпал В'єтнамської війни, на CBS йшов комедійний телесеріал «Гомер Куча, морпех» (Gomer Pyle, USMC) про веселі пригоди новобранця в корпусі морської піхоти США .
Сценарій в основному писав Майкл Герр, близький друг Кубрика, який сам був військовим кореспондентом у В'єтнамі.
Густав Хесфорд сам служив у В'єтнамі і в чому створив героїв свого роману на основі колишніх товаришів по службі.
У фільмі була сцена, в якій солдати грали у футбол людською головою. Сцену вирізали при монтажі. Кадри сексу Жартівника з в'єтнамською повією теж вирізали.
Весь фільм був знятий в Англії, так як Стенлі Кубрик боявся літати на літаках.
У всіх сценах фільму сержант з'являється з капелюхом на голові - навіть в епізоді, коли всі вночі прокидаються.
У момент пострілу в'єтнамського снайпера по кулеметникові спочатку видно фонтанчик пилу і піску від удару кулі по розі будівлі, а тільки потім з'являється спалах від пострілу.
Фільм знятий за романом Густава Хесфорд.
Тривалість: 01:56:30
Якість:
Відео:
кодек:
розмір кадру: 1280 x 720
бітрейт: 4920 кб/с

Аудіо:
мова: українська
переклад: багатоголосий закадровий
кодек: 5.1
бітрейт: 448 кб/с

Аудіо 2:
мова: англійська
переклад: оригінал
кодек: 5.1
бітрейт: 448 кб/с
MediaInfo
General
Unique ID : 215870991849325837058667228321464977089 (0xA2673DA0A8D2FD898ED77128E7C806C1)
Complete name : E:\kino\mobi\Full Metal Jacket (1987) 720p UkrEng .mkv
Format : Matroska
Format version : Version 2
File size : 4.74 GiB
Duration : 1h 56mn
Overall bit rate : 5 818 Kbps
Encoded date : UTC 2013-05-10 11:53:41
Writing application : mkvmerge v5.0.0 ('Die Wahre Liebe') built on Sep 25 2011 20:33:49
Writing library : libebml v1.2.2 + libmatroska v1.3.0

Video
ID : 1
Format : AVC
Format/Info : Advanced Video Codec
Format profile : [email protected]
Format settings, CABAC : Yes
Format settings, ReFrames : 8 frames
Codec ID : V_MPEG4/ISO/AVC
Duration : 1h 56mn
Bit rate : 4 920 Kbps
Width : 1 280 pixels
Height : 720 pixels
Display aspect ratio : 16:9
Frame rate : 23.976 fps
Color space : YUV
Chroma subsampling : 4:2:0
Bit depth : 8 bits
Scan type : Progressive
Bits/(Pixel*Frame) : 0.223
Stream size : 3.91 GiB (83%)
Writing library : core 56 svn-680
Encoding settings : cabac=1 / ref=5 / deblock=1:-3:-2 / analyse=0x3:0x133 / me=umh / subme=7 / brdo=1 / mixed_ref=1 / me_range=16 / chroma_me=1 / trellis=1 / 8x8dct=1 / cqm=2 / deadzone=21,11 / chroma_qp_offset=0 / threads=3 / nr=0 / decimate=1 / mbaff=0 / bframes=3 / b_pyramid=1 / b_adapt=1 / b_bias=0 / direct=3 / wpredb=1 / bime=1 / keyint=250 / keyint_min=25 / scenecut=40(pre) / rc=2pass / bitrate=4920 / ratetol=1.0 / rceq='blurCplx^(1-qComp)' / qcomp=0.60 / qpmin=10 / qpmax=51 / qpstep=4 / cplxblur=20.0 / qblur=0.5 / ip_ratio=1.40 / pb_ratio=1.30
Language : English
Default : Yes
Forced : No

Audio #1
ID : 2
Format : AC-3
Format/Info : Audio Coding 3
Mode extension : CM (complete main)
Codec ID : A_AC3
Duration : 1h 56mn
Bit rate mode : Constant
Bit rate : 448 Kbps
Channel(s) : 6 channels
Channel positions : Front: L C R, Side: L R, LFE
Sampling rate : 48.0 KHz
Bit depth : 16 bits
Compression mode : Lossy
Stream size : 373 MiB (8%)
Default : Yes
Forced : No

Audio #2
ID : 3
Format : AC-3
Format/Info : Audio Coding 3
Mode extension : CM (complete main)
Codec ID : A_AC3
Duration : 1h 56mn
Bit rate mode : Constant
Bit rate : 448 Kbps
Channel(s) : 6 channels
Channel positions : Front: L C R, Side: L R, LFE
Sampling rate : 48.0 KHz
Bit depth : 16 bits
Compression mode : Lossy
Stream size : 373 MiB (8%)
Language : English
Default : No
Forced : No
Скріншоти



















Подяка MAKAPOHHIK за звукову доріжку!

Джерело: &
Особиста оцінка: 10 - Народжені Вбивати!


Срібний реліз (на рейтинг впливає 50% завантаженого)
 Трекер:    Зареєстрований   

Завантажити / скачати фільм українською



відео для новачків



 Зареєстрований:   2013-05-10 18:40
 Розмір:   4.74 GB 
 Оцінка фільму:   9.7/10 (Голосів: 34)
   
Інші релізи
ratbol 
Модератор HD


З нами з: 03.02.09
Востаннє: 01.12.16
Повідомлень: 1088

2013-05-10 13:44  
TNT.KOT написано:
Muxing mode : Header stripping

Треба вимкнути цю функцію. Як це зробити: http://toloka.to/t31095
Скріншоти мають бути в форматі png.

ilitbr 
VIP


З нами з: 25.05.09
Востаннє: 04.12.16
Повідомлень: 428

2013-05-11 14:21  
Один з найкращих фільмів на військову тематику, дякую!
respect14 
VIP


З нами з: 26.01.11
Востаннє: 04.12.16
Повідомлень: 378

2013-05-11 16:53  
Буде звичайний ріп?
Ваш часовий пояс: GMT + 2 Години

Нова тема   Відповісти