Завантажити та скачати торренти українською


Нікіта (Її звали Нікіта) / Nikita / La Femme Nikita (1990) 1080p 2хUkr/Fre | Sub Eng

Нові коментарі

Нова тема   Відповісти
Автор Повідомлення
Anonymous 







2013-05-09 21:28  
Нікіта (Її звали Нікіта) / Nikita / La Femme Nikita (1990) 1080p 2хUkr/Fre | Sub Eng



Альтернативний український постер



Жанр: трилер, драма, кримінальний
Країна: Франція, Італія



Кінокомпанія: Gaumont, Les Films du Loup, Cecchi Gori Group Tiger Cinematografica
Режисер: Люк Бессон / Luc Besson
Актори: Анн Парійо / Anne Parillaud, Жан-Юг Англад / Jean-Hugues Anglade, Чекі Каріо / Tcheky Karyo, Жанна Моро / Jeanne Moreau, Жан Рено / Jean Reno, Ролан Бланш / Roland Blanche, Марк Дюре / Marc Duret та інші

Сюжет:
Її засудили за вбивство. Її приговорили до смертної кари. Замість виконання вироку, їй запропонували зробити вибір між смертю та роботою на певну урядову організацію. Після вибору вона вже не належить собі. Віднині вона - глибоко законспірована машина знищення на службі держави, що пізнає всі тонкощі страшного ремесла. Прекрасна жінка з опустошеною душою і холодним серцем, вона стає кращим кіллером організації. Але саме зараз вона починає розуміти цінності людського життя. І саме зараз вперше в житті її наздоганяє кохання...


рейтинг MPAA: R - особам до 17 років обов'язкова присутність батьків або дорослого опікуна
Вікова категорія: 16+

Тривалість: 01:57:13
Якість: 1080p
Відео:
кодек:
розмір кадру: 1920х816
бітрейт: 9848 кб/с

Аудіо # 1:
мова: українська
переклад: двоголосий закадровий
кодек: 5.1
бітрейт: 384 кб/с

Аудіо # 2:
мова: українська
переклад: двоголосий закадровий
кодек: 5.1
бітрейт: 384 кб/с

Аудіо # 3:
мова: французька
переклад: оригінал
кодек: 5.1
бітрейт: 640 кб/с

Субтитри:
мова: англійська
тип: програмні (м'які)
формат: *.srt

Збережено оригінальні розділи, як на Blu-ray.
MediaInfo та
[info]: frame I:1166 Avg QP:20.24 size:168359
[info]: frame P:48399 Avg QP:23.05 size: 75112
[info]: frame B:119057 Avg QP:24.00 size: 40486
====================================
General
Unique ID : 171577595257868901573793509063870250777 (0x8114A491C5B374529462A157D5FDFF19)
Complete name : Nikita.1990..1080p.Ukr.Fre.mkv
Format : Matroska
Format version : Version 4 / Version 2
File size : 9.21 GiB
Duration : 1h 57mn
Overall bit rate : 11.3 Mbps
Encoded date : UTC 2013-05-08 20:25:35
Writing application : mkvmerge v6.2.0 ('Promised Land') built on Apr 28 2013 12:22:01
Writing library : libebml v1.3.0 + libmatroska v1.4.0

Video
ID : 1
Format : AVC
Format/Info : Advanced Video Codec
Format profile : [email protected]
Format settings, CABAC : Yes
Format settings, ReFrames : 5 frames
Codec ID : V_MPEG4/ISO/AVC
Duration : 1h 57mn
Bit rate : 9 848 Kbps
Width : 1 920 pixels
Height : 816 pixels
Display aspect ratio : 2.35:1
Frame rate mode : Constant
Frame rate : 23.976 fps
Color space : YUV
Chroma subsampling : 4:2:0
Bit depth : 8 bits
Scan type : Progressive
Bits/(Pixel*Frame) : 0.262
Stream size : 7.88 GiB (85%)
Writing library : core 132 r2309 3b1f1f7
Encoding settings : cabac=1 / ref=5 / deblock=1:0:0 / analyse=0x3:0x133 / me=tesa / subme=11 / psy=1 / psy_rd=1.00:0.10 / mixed_ref=1 / me_range=32 / chroma_me=1 / trellis=2 / 8x8dct=1 / cqm=0 / deadzone=21,11 / fast_pskip=0 / chroma_qp_offset=-3 / threads=12 / lookahead_threads=1 / sliced_threads=0 / nr=0 / decimate=0 / interlaced=0 / bluray_compat=0 / constrained_intra=0 / bframes=3 / b_pyramid=2 / b_adapt=2 / b_bias=0 / direct=3 / weightb=1 / open_gop=0 / weightp=2 / keyint=240 / keyint_min=23 / scenecut=40 / intra_refresh=0 / rc_lookahead=60 / rc=2pass / mbtree=1 / bitrate=9848 / ratetol=1.0 / qcomp=0.60 / qpmin=0 / qpmax=69 / qpstep=4 / cplxblur=20.0 / qblur=0.5 / ip_ratio=1.40 / aq=1:1.00
Language : French
Default : Yes
Forced : No

Audio #1
ID : 2
Format : AC-3
Format/Info : Audio Coding 3
Mode extension : CM (complete main)
Format settings, Endianness : Big
Codec ID : A_AC3
Duration : 1h 57mn
Bit rate mode : Constant
Bit rate : 384 Kbps
Channel(s) : 6 channels
Channel positions : Front: L C R, Side: L R, LFE
Sampling rate : 48.0 KHz
Bit depth : 16 bits
Compression mode : Lossy
Stream size : 322 MiB (3%)
Title : DVO 1+1 5.1 384 kbps [Hurtom-_oles]
Language : Ukrainian
Default : Yes
Forced : No

Audio #2
ID : 3
Format : AC-3
Format/Info : Audio Coding 3
Mode extension : CM (complete main)
Format settings, Endianness : Big
Codec ID : A_AC3
Duration : 1h 57mn
Bit rate mode : Constant
Bit rate : 384 Kbps
Channel(s) : 6 channels
Channel positions : Front: L C R, Side: L R, LFE
Sampling rate : 48.0 KHz
Bit depth : 16 bits
Compression mode : Lossy
Stream size : 322 MiB (3%)
Title : DVO STB 5.1 384 kbps [Hurtom-_oles]
Language : Ukrainian
Default : No
Forced : No

Audio #3
ID : 4
Format : AC-3
Format/Info : Audio Coding 3
Mode extension : CM (complete main)
Format settings, Endianness : Big
Codec ID : A_AC3
Duration : 1h 57mn
Bit rate mode : Constant
Bit rate : 640 Kbps
Channel(s) : 6 channels
Channel positions : Front: L C R, Side: L R, LFE
Sampling rate : 48.0 KHz
Bit depth : 16 bits
Compression mode : Lossy
Stream size : 537 MiB (6%)
Title : Original 5.1 640 kbps
Language : French
Default : No
Forced : No

Text
ID : 5
Format : UTF-8
Codec ID : S_TEXT/UTF8
Codec ID/Info : UTF-8 Plain Text
Title : Eng full
Language : English
Default : No
Forced : No

Menu
00:00:00.000 : en:Main Title
00:07:45.965 : en:Shop Till You Drop... Dead
00:13:26.972 : en:Her Name in Blood
00:21:06.848 : en:A Life Sentence
00:24:57.579 : en:Mother Has Been Warned
00:35:09.690 : en:Officially Deceased
00:41:15.264 : en:Never the First Bullet
00:49:15.744 : en:Reeducation
00:55:00.714 : en:Barely Human
01:02:30.580 : en:No Sunday, No Exception
01:08:58.050 : en:Happy Final Birthday
01:16:13.860 : en:Abusing Feminine Wiles
01:28:49.032 : en:A Date Outside
01:34:41.008 : en:One Hell of a Present
01:41:27.414 : en:A Kiss Before Leaving
01:45:53.555 : en:Code Name "Josephine"


Джерела та подяки: ріп відео, оригінальні звук та субтитри - K.A.F. (рутор); українські доріжки - _oles - зведення, drakon87, Merdiff, robotron005, Malamute, gig_Panas - запис з ТБ, українські постери - abodnya та drakon87 (всі - Гуртом).

Особиста оцінка: 8 - мені сподобалося

ЗАЛИШАЙТЕСЬ ЯКОМОГА ДОВШЕ НА РОЗДАЧІ, НЕ ОБМЕЖУЙТЕ ШВИДКІСТЬ ВІДДАЧІ!

СКАЧАВ САМ - ДАЙ СКАЧАТИ ІНШИМ


Срібний реліз (на рейтинг впливає 50% завантаженого)
 Трекер:    Зареєстрований   

Завантажити / скачати фільм українською



відео для новачків



 Зареєстрований:   2013-05-09 21:28
 Розмір:   9.21 GB 
 Оцінка фільму:   3.6/10 (Голосів: 14)
   
Інші релізи
Ваш часовий пояс: GMT + 2 Години

Нова тема   Відповісти