Завантажити та скачати торренти українською


Джек Річер / Jack Reacher (2012) Remux 1080p Ukr/Eng | Sub Ukr/Eng

Нові коментарі

Нова тема   Відповісти
Останній раз роздавалося Ifenix (2016-12-06)
Автор Повідомлення
mix14 
Поважний учасник


З нами з: 29.08.11
Востаннє: 06.12.16
Повідомлень: 152

2013-05-09 17:19  
Джек Річер / Jack Reacher (2012) Remux 1080p Ukr/Eng | Sub Ukr/Eng

Джек Річер / Jack Reacher (2012) Remux 1080p Ukr/Eng | Sub Ukr/Eng


Жанр: бойовик, кримінальний, трилер
Країна: США



Кінокомпанія: Mutual Film Company, Paramount Pictures, Skydance Productions
Режисер: Крістофер МакКуоррі
Актори: Том Круз, Розамунд Пайк, Річард Дженкінс, Вернер Херцог, Девід Ойєлоуо, Роберт Дювалл, Олександр Родс та інші.

Сюжет:
Приватний детектив Річер розслідує справу вбивства одразу п'яти осіб. Він – людина принципу, тому зупинити його буде важко. Він налаштований дістатися до правди оскільки, впевнений в тому, що звинувачення на адресу його клієнта – це лише верхівка айсбергу. Адже істині мотиви злочину набагато складніші.


Тривалість: 02:10:24
Якість: Remux
Відео:
кодек:
розмір кадру: 1920х1080
бітрейт: ~27543 кб/с

Аудіо # 1:
мова: українська
переклад: професійний дубльований
кодек: 5.1
бітрейт: 448 кб/с

Аудіо # 2:
мова: англійська
переклад: оригінал
кодек: -HD MA 7.1
бітрейт: 4173 кб/с

Аудіо # 3:
мова: англійська |Descriptive|
переклад: оригінал
кодек: 5.1
бітрейт: 640 кб/с

Аудіо # 4:
мова: англійська |Commentary by Tom Cruise and Director Christopher McQuarrie|
переклад: оригінал
кодек: 2.0
бітрейт: 224 кб/с

Аудіо # 5:
мова: англійська |Commentary by Composer Joe Kraemer|
переклад: оригінал
кодек: 2.0
бітрейт: 224 кб/с

Джерело озвучення:


Субтитри:
мова: українська
тип: програмні (м'які)
формат: *.srt

Субтитри:
мова: англійська
тип: програмні (м'які)
формат: *.srt
MediaInfo
General
Unique ID : 218318630161764091651458350314937583267 (0xA43EA38374D1ECBC8120075F8AB706A3)
Complete name : D:\Films\Jack Reacher (2012) Remux [ukr,eng].mkv
Format : Matroska
Format version : Version 2
File size : 30.1 GiB
Duration : 2h 10mn
Overall bit rate mode : Variable
Overall bit rate : 33.0 Mbps
Encoded date : UTC 2013-05-09 14:51:21
Writing application : mkvmerge v5.7.0 ('The Whirlwind') built on Jul 8 2012 20:08:51
Writing library : libebml v1.2.3 + libmatroska v1.3.0

Video
ID : 1
Format : AVC
Format/Info : Advanced Video Codec
Format profile : [email protected]
Format settings, CABAC : Yes
Format settings, ReFrames : 4 frames
Codec ID : V_MPEG4/ISO/AVC
Duration : 2h 10mn
Bit rate mode : Variable
Bit rate : 29.2 Mbps
Maximum bit rate : 32.0 Mbps
Width : 1 920 pixels
Height : 1 080 pixels
Display aspect ratio : 16:9
Frame rate : 23.976 fps
Color space : YUV
Chroma subsampling : 4:2:0
Bit depth : 8 bits
Scan type : Progressive
Bits/(Pixel*Frame) : 0.588
Stream size : 26.6 GiB (89%)
Default : Yes
Forced : No

Audio #1
ID : 2
Format : AC-3
Format/Info : Audio Coding 3
Mode extension : CM (complete main)
Codec ID : A_AC3
Duration : 2h 10mn
Bit rate mode : Constant
Bit rate : 448 Kbps
Channel(s) : 6 channels
Channel positions : Front: L C R, Side: L R, LFE
Sampling rate : 48.0 KHz
Bit depth : 16 bits
Compression mode : Lossy
Stream size : 418 MiB (1%)
Language : Ukrainian
Default : Yes
Forced : Yes

Audio #2
ID : 3
Format :
Format/Info : Digital Theater Systems
Format profile : MA / Core
Codec ID : A_DTS
Duration : 2h 10mn
Bit rate mode : Variable
Bit rate : 1 597 Kbps / 1 510 Kbps
Channel(s) : 8 channels / 6 channels
Channel positions : Front: L C R, Side: L R, Back: L R, LFE / Front: L C R, Side: L R, LFE
Sampling rate : 48.0 KHz
Bit depth : 24 bits
Compression mode : Lossless / Lossy
Language : English
Default : No
Forced : No

Audio #3
ID : 4
Format : AC-3
Format/Info : Audio Coding 3
Mode extension : CM (complete main)
Codec ID : A_AC3
Duration : 2h 10mn
Bit rate mode : Constant
Bit rate : 640 Kbps
Channel(s) : 6 channels
Channel positions : Front: L C R, Side: L R, LFE
Sampling rate : 48.0 KHz
Bit depth : 16 bits
Compression mode : Lossy
Stream size : 597 MiB (2%)
Language : English
Default : No
Forced : No

Audio #4
ID : 5
Format : AC-3
Format/Info : Audio Coding 3
Mode extension : CM (complete main)
Codec ID : A_AC3
Duration : 2h 10mn
Bit rate mode : Constant
Bit rate : 224 Kbps
Channel(s) : 2 channels
Channel positions : Front: L R
Sampling rate : 48.0 KHz
Bit depth : 16 bits
Compression mode : Lossy
Stream size : 209 MiB (1%)
Language : English
Default : No
Forced : No

Audio #5
ID : 6
Format : AC-3
Format/Info : Audio Coding 3
Mode extension : CM (complete main)
Codec ID : A_AC3
Duration : 2h 10mn
Bit rate mode : Constant
Bit rate : 224 Kbps
Channel(s) : 2 channels
Channel positions : Front: L R
Sampling rate : 48.0 KHz
Bit depth : 16 bits
Compression mode : Lossy
Stream size : 209 MiB (1%)
Language : English
Default : No
Forced : No

Text #1
ID : 7
Format : UTF-8
Codec ID : S_TEXT/UTF8
Codec ID/Info : UTF-8 Plain Text
Language : Ukrainian
Default : No
Forced : No

Text #2
ID : 8
Format : UTF-8
Codec ID : S_TEXT/UTF8
Codec ID/Info : UTF-8 Plain Text
Title : Full
Language : English
Default : No
Forced : No
Скріншоти

Джерело: &
Особиста оцінка: 0 - не дивився


Золотий реліз (завантажене не впливає на рейтинг)
 Трекер:    Зареєстрований   

Завантажити / скачати фільм українською



відео для новачків



 Зареєстрований:   2013-05-09 17:19
 Розмір:   30.09 GB 
 Оцінка фільму:   10/10 (Голосів: 5)
   
Інші релізи
   Джек Річер / Jack Reacher (2012) 2хUkr patriot2305  26 / 5   1.81 GB   2014-03-16 21:02 
   Джек Річер / Jack Reacher (2012) 1080p Ukr/Eng | Sub Ukr/Eng igor911  10 / 0   7.76 GB   2013-05-20 19:03 
   Джек Річер / Jack Reacher (2012) Ukr/Eng | Sub Ukr/Eng patriot2305  8 / 0   2.59 GB   2013-05-10 16:29 
   Джек Річер / Jack Reacher (2012) AVC 2xUkr/Eng | Sub Ukr/Eng Gelios  8 / 0   2.59 GB   2013-05-10 08:17 
   Джек Річер / Jack Reacher (2012) 720p-mini Drool  9 / 0   2.7 GB   2013-05-09 11:37 
   Джек Річер / Jack Reacher (2012) 720p Ukr/Eng | Sub Ukr/Eng 11FrYkT  7 / 0   7.29 GB   2013-05-09 06:30 
leroykendall 
Модератор HD


З нами з: 03.01.11
Востаннє: 20.11.16
Повідомлень: 749

2015-08-20 22:46  
Ну от: так я поцілунку і не дочекався. Не пересічний бойовик.
Ваш часовий пояс: GMT + 2 Години

Нова тема   Відповісти