Завантажити та скачати торренти українською


Сігал Спожив Спілка - With A Little Friends From My Help (1999) [FLAC] | Alternative

Нові коментарі

Нова тема   Відповісти
Автор Повідомлення
gosha.samovar 
VIP


З нами з: 08.09.10
Востаннє: 11.12.16
Повідомлень: 400

2013-05-06 12:32  
Сігал Спожив Спілка - With A Little Friends From My Help (1999) [FLAC] | Alternative

Сігал Спожив Спілка - With A Little Friends From My Help (1999) [FLAC] | Alternative


Стиль: Alternative Rock
Країна, місто: Україна, Львів
Видавець: Rostok Records
Виконавці
    Лірика:

      Юрко Позаяк (1,3,5,6)
      Олег Калич /старий/ (7)
      Ігор Римарук (2)
      Юрій Андрухович (9)
      Володя Цибулько (8)
      Роман Сігал-Чайка (4)


    Уся музика & аранжування:
      Сігал-Чайка


    SSS то:

      Роман Сігал-Чайка - усі гітари, бас (3), драм-махіна, тіпа спів і т.д.
      Денис Трохимчук - бас (фірмовий) (1,4,5,9)
      Славко Лісний - бубни (9)
      Денис Тихонов - іще їдна гітара (4,9)
      Ярка Якуб'як - пойоть, дримба (1,5,9)
      Олег Калич (старий) - спів, крик, стогін, регіт (7,8)


    Запрошені до спілки:

      Мирко Калич (юніор) - бубни (7,8)
      Олег-John Сук - бас (6,7)
      Всеволод Дячишин - бас також (8)
      Ігор Ковбаса-Мельничук - те саме (2)
      Мар'ян (просто) - просто гітара (7)
      Олег Білий Шевченко - гітарні прибамбаси (3)
      Павлик Крохмальов - ф-но (велике й дерев'яне) (1,5)
      Ігор Шепта - флейта (1)


    Записано на студії ГалВокс, Львів, грудень 1995/січень1996
    Режисери: Едвард Григор'єв & Роман Сігал-Чайка
    Продюсер: сам собі
Пісні:
    01. Зоопарк (анти-диско мікс)
    02. Перше квітня
    03. Люблю
    04. Поцьомай мене, мила (Mc Donald)
    05. Зоопарк (параноя-ремікс)
    06. Ентузіаст вина і жарту
    07. Стій, хлопче, насіння проростає...
    08. Вовк
    09. Гаспид, або ж Дідько (для Ліди)
    10. Епілог
EAC log
Exact Audio Copy V1.0 beta 3 from 29. August 2011

Отчёт EAC об извлечении, выполненном 25. апреля 2013, 18:08

Сігал Спожив Спілка / With A Little Friends From My Help

Дисковод: PHILIPS SPD2519T Adapter: 2 ID: 0

Режим чтения : Достоверность
Использование точного потока : Да
Отключение кэша аудио : Да
Использование указателей C2 : Нет

Коррекция смещения при чтении : 6
Способность читать области Lead-in и Lead-out : Нет
Заполнение пропущенных сэмплов тишиной : Да
Удаление блоков с тишиной в начале и конце : Нет
При вычислениях CRC использовались нулевые сэмплы : Да
Интерфейс : Встроенный Win32-интерфейс для Win NT/2000

Выходной формат : Пользовательский кодировщик
Выбранный битрейт : 1024 kBit/s
Качество : Высокий
Добавление ID3-тега : Нет
Утилита сжатия : D:\soft_2\EAC\Exact Audio Copy\Flac\flac.exe
Дополнительные параметры : -V -8 -T "Date=%year%" -T "Genre=%genre%" %source%

TOC извлечённого CD

Трек | Старт | Длительность | Начальный сектор | Конечный сектор
---------------------------------------------------------------------
1 | 0:00.00 | 3:47.61 | 0 | 17085
2 | 3:47.61 | 4:01.03 | 17086 | 35163
3 | 7:48.64 | 3:06.24 | 35164 | 49137
4 | 10:55.13 | 2:48.00 | 49138 | 61737
5 | 13:43.13 | 3:50.09 | 61738 | 78996
6 | 17:33.22 | 4:46.61 | 78997 | 100507
7 | 22:20.08 | 6:02.14 | 100508 | 127671
8 | 28:22.22 | 7:05.27 | 127672 | 159573
9 | 35:27.49 | 7:08.21 | 159574 | 191694
10 | 42:35.70 | 1:29.59 | 191695 | 198428

Характеристики диапазона извлечения и сообщения об ошибках

Выбранный диапазон

Имя файла N:\Роздачі\Сігал Спожив Спілка\Сігал Спожив Спілка - With A Little Friends From My Help (1999) [FLAC]\Сігал Спожив Спілка - With A Little Friends From My Help.wav

Пиковый уровень 100.0 %
Скорость извлечения 2.3 X
Качество диапазона 99.9 %
CRC теста 4A59DFE8
CRC копии 4A59DFE8
Копирование... OK

Ошибок не произошло

AccurateRip: сводка

Трек 1 отсутствует в базе данных
Трек 2 отсутствует в базе данных
Трек 3 отсутствует в базе данных
Трек 4 отсутствует в базе данных
Трек 5 отсутствует в базе данных
Трек 6 отсутствует в базе данных
Трек 7 отсутствует в базе данных
Трек 8 отсутствует в базе данных
Трек 9 отсутствует в базе данных
Трек 10 отсутствует в базе данных

Ни одного трека нет в базе AccurateRip

Конец отчёта

==== Контрольная сумма отчёта 805796D15F29CED2E1FBFA87B382441961BFBB257B049D508152226B85834BE8 ====
Спектр
Тривалість: 00:44:06
Мова: українська
Аудіо-кодек: FLAC
Бітрейт: 910 кб/с
Джерело: Власний ріп власного CD
Додаткова інформація:
Єдиний альбом сайд-проекту Романа Чайки з "Мертвого Півня", що був записаний в грудні 1995 - січні 1995 р. і виданий у 1999 р.


Срібний реліз (на рейтинг впливає 50% завантаженого)
 Трекер:    Зареєстрований   

Завантажити / скачати українську музику



відео для новачків



 Зареєстрований:   2013-05-06 12:37
 Розмір:   306 MB 
 Оцінка музики:   10/10 (Голосів: 5)
   
Ваш часовий пояс: GMT + 2 Години

Нова тема   Відповісти