Завантажити та скачати торренти українською


Джек о'Лентерн - Там, де наше серце (1999) [FLAC] | Alternative

Нові коментарі

Нова тема   Відповісти
Останній раз роздавалося Myfordownloads (2016-10-09)
Автор Повідомлення
gosha.samovar 
VIP


З нами з: 08.09.10
Востаннє: 06.12.16
Повідомлень: 400

2013-05-06 09:33  
Джек о'Лентерн - Там, де наше серце (1999) [FLAC] | Alternative

Джек о'Лентерн - Там, де наше серце (1999) [FLAC] | Alternative


Стиль: Alternative Rock
Країна, місто: Україна, Львів
Видавець: Rostok Records
Виконавці:
    Дмитро "Рижий" Романів - гітара, вокал.
    Орест "Смєх" Смішко - бас-гітара.
    Олексій "Льолік" Слободян - ударні.
    Влодко "Флойд" Романів - бас-гітара (09, 10).
    Тарас Маркітан - соло-гітара.
    Віта Курилова - флейта.
    Богдан Либа - клавішні інструменти.

Пісні:
    01. Країна весни
    02. Де ти
    03. Там, де наше серце
    04. А життя - це дим
    05. Хтось
    06. Сон минає
    07. Чорно
    08. Бачу сон
    09. Самотній дощ
    10. БТБ
    11. Плач ангела
EAC log
Exact Audio Copy V1.0 beta 3 from 29. August 2011

Отчёт EAC об извлечении, выполненном 25. апреля 2013, 15:53

Джек о'Лентерн / Там, де наше серце

Дисковод: PHILIPS SPD2519T Adapter: 2 ID: 0

Режим чтения : Достоверность
Использование точного потока : Да
Отключение кэша аудио : Да
Использование указателей C2 : Нет

Коррекция смещения при чтении : 6
Способность читать области Lead-in и Lead-out : Нет
Заполнение пропущенных сэмплов тишиной : Да
Удаление блоков с тишиной в начале и конце : Нет
При вычислениях CRC использовались нулевые сэмплы : Да
Интерфейс : Встроенный Win32-интерфейс для Win NT/2000

Выходной формат : Пользовательский кодировщик
Выбранный битрейт : 1024 kBit/s
Качество : Высокий
Добавление ID3-тега : Нет
Утилита сжатия : D:\soft_2\EAC\Exact Audio Copy\Flac\flac.exe
Дополнительные параметры : -V -8 -T "Date=%year%" -T "Genre=%genre%" %source%

TOC извлечённого CD

Трек | Старт | Длительность | Начальный сектор | Конечный сектор
---------------------------------------------------------------------
1 | 0:00.00 | 4:10.52 | 0 | 18801
2 | 4:10.52 | 2:12.07 | 18802 | 28708
3 | 6:22.59 | 3:28.65 | 28709 | 44373
4 | 9:51.49 | 2:59.62 | 44374 | 57860
5 | 12:51.36 | 4:38.36 | 57861 | 78746
6 | 17:29.72 | 6:43.56 | 78747 | 109027
7 | 24:13.53 | 2:28.67 | 109028 | 120194
8 | 26:42.45 | 3:50.57 | 120195 | 137501
9 | 30:33.27 | 3:47.26 | 137502 | 154552
10 | 34:20.53 | 3:50.52 | 154553 | 171854
11 | 38:11.30 | 5:50.45 | 171855 | 198149

Характеристики диапазона извлечения и сообщения об ошибках

Выбранный диапазон

Имя файла N:\Роздачі\Джек о'Лентерн\Джек о'Лентерн - Там, де наше серце (1999) [FLAC]\Джек о'Лентерн - Там, де наше серце.wav

Пиковый уровень 99.8 %
Скорость извлечения 4.0 X
Качество диапазона 100.0 %
CRC теста 017DC751
CRC копии 017DC751
Копирование... OK

Ошибок не произошло

AccurateRip: сводка

Трек 1 отсутствует в базе данных
Трек 2 отсутствует в базе данных
Трек 3 отсутствует в базе данных
Трек 4 отсутствует в базе данных
Трек 5 отсутствует в базе данных
Трек 6 отсутствует в базе данных
Трек 7 отсутствует в базе данных
Трек 8 отсутствует в базе данных
Трек 9 отсутствует в базе данных
Трек 10 отсутствует в базе данных
Трек 11 отсутствует в базе данных

Ни одного трека нет в базе AccurateRip

Конец отчёта

==== Контрольная сумма отчёта 0B4EA02DBE05CA2671DFAC3328FA267A2972CD9936AFAC5F5E20C37511933B81 ====
Спектр
Тривалість: 00:44:02
Мова: українська
Аудіо-кодек: FLAC
Бітрейт: 913 кб/с
Джерело: Власний ріп власного CD
Додаткова інформація
Група Джек о'Лентерн була створена взимку 1993 року. На початках своєї історії концептуально тяжіла до типового львівського андерграунду з артроковим відтінком. Перші публічні виступи відбулися навесні 1994.
З того часу "Джек о'Лентерн" є постійним учасником і яскравим урізноманітненням музичних тусовок у Львові та інших містах східної Європи. Група була учасником богатьох фестивалів і конкурсів в Україні і за кордоном. Ось деякі з них:
"Весна Політехніки" '94, '96, '97 - Львів; "Деформація" '96 - Львів; "Рокотека" '95, '97, '98 - Львів;
"Срібна Підкова" '96 - Львів; "Перлини Сезону" '96, '98, '99 - Луцьк, Запоріжжя, Київ; "Червона Рута" '95, '97 - Львів, Харків; "Рок-Екзистенція" 2000 - Київ; "Wioslo Jacwinga" '99 - Suwalki (Польща); "Juwenalia 2000" - Torun (Польща).
Група є переможцем рейтингу "Зоряна Забава" (2000 р., Львів) в номінації "Краща рок-група".

Композиції витримані в софт-роковому стилі з джаз- і фанк-роковим забарвленням, мелодійні і енергійні. В творчому доробку групи понад 200 живих виступів, один CD-альбом, а також участь у кількох збірниках.


Срібний реліз (на рейтинг впливає 50% завантаженого)
 Трекер:    Зареєстрований   

Завантажити / скачати українську музику



відео для новачків



 Зареєстрований:   2013-05-06 09:33
 Розмір:   308 MB 
 Оцінка музики:   8.9/10 (Голосів: 7)
   
gosha.samovar 
VIP


З нами з: 08.09.10
Востаннє: 06.12.16
Повідомлень: 400

2013-05-06 09:36  
Хотів тут спитати. Комусь відомо, чи існує зараз цей гурт? Чи є у них ще альбоми? У інтернеті про них дуже мало пишуть.
Солошка 
Новенький


З нами з: 29.11.14
Востаннє: 29.11.14
Повідомлень: 1

2014-11-29 11:00  
гурт існує, недавно грали в Віденській каві
Михайло Хмара 
Новенький


З нами з: 13.10.16
Востаннє: 18.11.16
Повідомлень: 3

2016-10-13 21:40  
Хто може, роздайте! дякую!
Ваш часовий пояс: GMT + 2 Години

Нова тема   Відповісти