Завантажити та скачати торренти українською


Вавилон Н.Е. / Babylon A.D. (2008) 1080p 2xUkr/Eng | Sub Ukr/Eng

Нові коментарі

Нова тема   Відповісти
Автор Повідомлення
Anonymous 







2013-05-05 21:03  
Вавилон Н.Е. / Babylon A.D. (2008) 1080p 2xUkr/Eng | Sub Ukr/Eng

Вавилон Н.Е. / Babylon A.D. (2008) 1080p 2xUkr/Eng | Sub Ukr/Eng

Альтернативні постери





Жанр: фантастика, бойовик, трилер, пригоди
Країна: США, Франція, Великобританія



Кіностудія / кінокомпанія: Babylon, MNP Entreprise, Studio Canal
Режисер: Матьє Кассовіц / Mathieu Kassovitz
Актори: Він Дізель / Vin Diesel (Toorop), Мішель Йео / Michelle Yeoh (Sister Rebeka), Мелані Тьєррі / Melanie Thierry (Aurora), Жерар Депардьє / Gerard Depardieu (Gorsky), Шарлотта Ремплінг / Charlotte Rampling (The High Priestess), Марк Стронг / Mark Strong (Finn), Ламбер Вілсон / Lambert Wilson (Darquandier), Жером Ле Баннер / Jerome Le Banner (Killa)


Сюжет:
Крутий найманець Туроп, що побував у багатьох гарячих точках планети, отримує пропозицію, від якої не можливо відмовитися. Ватажок мафії Горський хоче, щоб він доставив зі Східної Європи в Нью-Йорк загадкову дівчину. Але дуже швидко стає зрозуміло, що на неї йде справжнє полювання, організоване могутнім релігійним орденом...


рейтинг MPAA: PG-13 - дітям до 13 років перегляд не бажаний
Вікова категорія: 18+

Саундтреком до фільму стала робота київської групи «Sister Siren». А саме пісня «Trideo». У фінальному відборі «Sister Siren» обігнала популярну американську групу «8 миля». Більше того, режисеру фільму так сподобався кліп на пісню, що деякі уривки і кадри кліпу увійдуть до фільму.
Ще трохи інформації про фільм:

• На головну роль пробувався Венсан Кассель.
• У картині є сцени паркуру, поставлені Девідом Беллем («13-ий район»).
• Візуальними ефектами займалася французька студія BUF Compagnie, що працювала також над «Темним лицарем».
• У березні 2007-го року під час зйомок в Чехії Кассовіц змушений був взяти двотижневу перерву через примхи погоди - йому потрібен був сніг, якого катастрофічно не вистачало. Сніг він знайшов в Ісландії, де і були відзняті необхідні натурні сцени.
• Зйомки планувалося розпочати ще в лютому 2006 року, але через низку проблем вони були перенесені майже на рік.
• У сцені посадки на поїзд, що рухається у Владивосток з Казахстану, на екрані інформаційного табло вокзалу показувався уривок з фільму «Наречена і забобони».
• Фільм значно перевищив свій бюджет і терміни зйомок, тому страхова компанія обнулила його страховий поліс.
Тривалість: 01:40:45
Якість: 1080p (BD від West Video)
Відео:
кодек:
розмір кадру: 1920x816
бітрейт: 6837 кбіт/с

Аудіо # 1:
мова: українська
переклад: багатоголосий закадровий
кодек: 5.1
бітрейт: 448 кбіт/с
Інформація щодо озвучення

Ролі озвучили: Він Дізель — Микола Боклан?, Другорядні ролі — Дмитро Завадський, Тетяна Антонова?, Жерар Депардьє — Анатолій Пашнін, Марк Стронґ — Ярослав Чорненький та інші.
Аудіо # 2:
мова: українська
переклад: багатоголосий закадровий
кодек: 2.0
бітрейт: 192 кбіт/с

Аудіо # 3:
мова: англійська
переклад: оригінал
кодек: 5.1
бітрейт: 448 кбіт/с

Субтитри # 1:
мова: українська
тип: програмні (м'які)
формат: *.srt

Субтитри # 2:
мова: англійська (повні)
тип: програмні (м'які)
формат: *.srt

Субтитри # 3:
мова: англійська (SDH, для людей з вадами слуху)
тип: програмні (м'які)
формат: *.srt

Збережено оригінальні розділи, як на Blu-ray.
MediaInfo та

[info]: frame I:802 Avg QP:17.85 size:134146
[info]: frame P:41600 Avg QP:21.14 size: 59431
[info]: frame B:102534 Avg QP:22.99 size: 25203
Код:
General
Unique ID                                : 251296589001757181833554722920413886095 (0xBD0DF66ADCAFF16C978F3827EC8D768F)
Complete name                            : Babylon.A.D. (2008) [2xUkr,Eng sub.Ukr,Eng] 1080р [Hurtom].mkv
Format                                   : Matroska
Format version                           : Version 4 / Version 2
File size                                : 5.58 GiB
Duration                                 : 1h 40mn
Overall bit rate                         : 7 925 Kbps
Movie name                               : Вавілон Н.Е. / Babylon A.D. (2008) [Hurtom]
Encoded date                             : UTC 2014-06-07 20:17:08
Writing application                      : mkvmerge v6.9.1 ('Blue Panther') 64bit built on Apr 18 2014 18:23:38
Writing library                          : libebml v1.3.0 + libmatroska v1.4.1

Video
ID                                       : 1
Format                                   : AVC
Format/Info                              : Advanced Video Codec
Format profile                           : [email protected]
Format settings, CABAC                   : Yes
Format settings, ReFrames                : 4 frames
Codec ID                                 : V_MPEG4/ISO/AVC
Duration                                 : 1h 40mn
Bit rate                                 : 6 837 Kbps
Width                                    : 1 920 pixels
Height                                   : 816 pixels
Display aspect ratio                     : 2.35:1
Frame rate mode                          : Constant
Frame rate                               : 23.976 fps
Color space                              : YUV
Chroma subsampling                       : 4:2:0
Bit depth                                : 8 bits
Scan type                                : Progressive
Bits/(Pixel*Frame)                       : 0.182
Stream size                              : 4.70 GiB (84%)
Title                                    : Вавілон Н.Е. / Babylon A.D. / Вавилон Н.Э. (2008) [Freeisland-taty75]
Writing library                          : core 130 r2273 b3065e6
Encoding settings                        : cabac=1 / ref=4 / deblock=1:-1:-1 / analyse=0x3:0x133 / me=umh / subme=10 / psy=1 / psy_rd=1.00:0.00 / mixed_ref=1 / me_range=32 / chroma_me=1 / trellis=2 / 8x8dct=1 / cqm=0 / deadzone=21,11 / fast_pskip=0 / chroma_qp_offset=-2 / threads=6 / lookahead_threads=1 / sliced_threads=0 / nr=0 / decimate=1 / interlaced=0 / bluray_compat=0 / constrained_intra=0 / bframes=10 / b_pyramid=2 / b_adapt=2 / b_bias=0 / direct=3 / weightb=1 / open_gop=0 / weightp=2 / keyint=240 / keyint_min=24 / scenecut=40 / intra_refresh=0 / rc=2pass / mbtree=0 / bitrate=6837 / ratetol=1.0 / qcomp=1.00 / qpmin=0 / qpmax=51 / qpstep=4 / cplxblur=20.0 / qblur=0.5 / ip_ratio=1.40 / pb_ratio=1.30 / aq=1:1.00
Language                                 : English
Default                                  : Yes
Forced                                   : No
Color primaries                          : BT.709
Transfer characteristics                 : BT.709
Matrix coefficients                      : BT.709

Audio #1
ID                                       : 2
Format                                   : AC-3
Format/Info                              : Audio Coding 3
Mode extension                           : CM (complete main)
Format settings, Endianness              : Big
Codec ID                                 : A_AC3
Duration                                 : 1h 40mn
Bit rate mode                            : Constant
Bit rate                                 : 448 Kbps
Channel(s)                               : 6 channels
Channel positions                        : Front: L C R, Side: L R, LFE
Sampling rate                            : 48.0 KHz
Bit depth                                : 16 bits
Compression mode                         : Lossy
Stream size                              : 323 MiB (6%)
Title                                    : MVO [DVD-R5] 5.1 448 kbps
Language                                 : Ukrainian
Default                                  : Yes
Forced                                   : Yes

Audio #2
ID                                       : 3
Format                                   : AC-3
Format/Info                              : Audio Coding 3
Mode extension                           : CM (complete main)
Format settings, Endianness              : Big
Codec ID                                 : A_AC3
Duration                                 : 1h 40mn
Bit rate mode                            : Constant
Bit rate                                 : 192 Kbps
Channel(s)                               : 2 channels
Channel positions                        : Front: L R
Sampling rate                            : 48.0 KHz
Bit depth                                : 16 bits
Compression mode                         : Lossy
Delay relative to video                  : 2ms
Stream size                              : 138 MiB (2%)
Title                                    : MVO [ICTV] 2.0 192 Kbps [Hurtom-patriot2305]
Language                                 : Ukrainian
Default                                  : No
Forced                                   : No

Audio #3
ID                                       : 4
Format                                   : AC-3
Format/Info                              : Audio Coding 3
Mode extension                           : CM (complete main)
Format settings, Endianness              : Big
Codec ID                                 : A_AC3
Duration                                 : 1h 40mn
Bit rate mode                            : Constant
Bit rate                                 : 448 Kbps
Channel(s)                               : 6 channels
Channel positions                        : Front: L C R, Side: L R, LFE
Sampling rate                            : 48.0 KHz
Bit depth                                : 16 bits
Compression mode                         : Lossy
Stream size                              : 323 MiB (6%)
Title                                    : Original
Language                                 : English
Default                                  : No
Forced                                   : No

Text #1
ID                                       : 5
Format                                   : UTF-8
Codec ID                                 : S_TEXT/UTF8
Codec ID/Info                            : UTF-8 Plain Text
Title                                    : Ukr full
Language                                 : Ukrainian
Default                                  : No
Forced                                   : No

Text #2
ID                                       : 6
Format                                   : UTF-8
Codec ID                                 : S_TEXT/UTF8
Codec ID/Info                            : UTF-8 Plain Text
Title                                    : Eng full
Language                                 : English
Default                                  : No
Forced                                   : No

Text #3
ID                                       : 7
Format                                   : UTF-8
Codec ID                                 : S_TEXT/UTF8
Codec ID/Info                            : UTF-8 Plain Text
Title                                    : Eng SDH
Language                                 : English
Default                                  : No
Forced                                   : No

Menu
00:00:00.000                             : en:00:00:00.000
00:06:31.391                             : en:00:06:31.391
00:10:35.051                             : en:00:10:35.051
00:16:14.432                             : en:00:16:14.432
00:22:27.763                             : en:00:22:27.763
00:30:50.057                             : en:00:30:50.057
00:42:03.980                             : en:00:42:03.980
00:46:43.926                             : en:00:46:43.926
00:50:06.503                             : en:00:50:06.503
00:54:19.465                             : en:00:54:19.465
01:02:17.233                             : en:01:02:17.233
01:09:10.855                             : en:01:09:10.855
01:12:58.916                             : en:01:12:58.916
01:17:26.392                             : en:01:17:26.392
01:28:48.823                             : en:01:28:48.823
01:34:10.645                             : en:01:34:10.645



Джерела та подяки: &
ріп відео, оригінальна та українська доріжка #1, субтитри - taty75 (Freeisland); українська доріжка #2 (ICTV) - patriot2305 - зведення, Sando7 - запис з ТБ; один з українських постерів - Gelios (всі - Гуртом).

08.06.2014 реліз змінено - додано українську доріжку від ICTV

ЗАЛИШАЙТЕСЬ ЯКОМОГА ДОВШЕ НА РОЗДАЧІ!

СКАЧАВ САМ - ДАЙ СКАЧАТИ ІНШИМ


 Трекер:    Зареєстрований   

Завантажити / скачати фільм українською



відео для новачків



 Зареєстрований:   2014-06-07 23:14
 Розмір:   5.58 GB 
 Оцінка фільму:   6.2/10 (Голосів: 25)
   
Інші релізи
   Вавилон Н.Е. / Babylon A.D. (2008) 2хUkr patriot2305  4 / 1   1.59 GB   2014-06-07 08:44 
   Вавілон Н.Е. / Babylon A.D. [Extended Cut] (2008) Ukr/Eng | Sub Ukr/Eng DemsOFF  0 / 1   2.14 GB   2010-02-26 17:32 
   Вавилон Н.Е. / Babylon A.D. (2008) [Extended Cut] 720p wolverine  2 / 0   3.58 GB   2010-01-05 09:34 
qzemodo 
Свій


З нами з: 02.02.10
Востаннє: 10.12.16
Повідомлень: 128

2013-05-26 15:44  
Цитата:
Саундтреком до фільму стала робота київської групи «Sister Siren».

Чомусь не чув цієї пісні у фільмі.

Anonymous 







2014-06-07 23:28  
Оновив реліз - додав українську доріжку #2 (ICTV).
Ваш часовий пояс: GMT + 2 Години

Нова тема   Відповісти