Завантажити та скачати торренти українською


Дитя людське / Останній нащадок Землі / Children of Men (2006) 1080p Ukr/Eng | Sub Eng

Нові коментарі

Нова тема   Відповісти
Автор Повідомлення
Anonymous 







2013-05-05 10:37  
Дитя людське / Останній нащадок Землі / Children of Men (2006) 1080p Ukr/Eng | Sub Eng


Жанр: фантастика, трилер, драма, пригоди
Країна: США, Великобританія



Кіностудія / кінокомпанія: Universal Pictures, Strike Entertainment, Hit & Run Productions
Режисер: Альфонсо Куарон / Alfonso Cuarón
Актори: Клайв Оуен / Clive Owen (Theo Faron), Клер-Хоуп Ешіті / Claire-Hope Ashitey (Kee), Джуліанн Мур / Julianne Moore (Julian), Майкл Кейн / Michael Caine (Jasper), Чарлі Ханнем / Charlie Hunnam (Patric), Чіветель Еджіофор / Chiwetel Ejiofor (Luke), Пем Ферріс / Pam Ferris (Miriam), Денні Хьюстон / Danny Huston (Nigel) та інші.


Сюжет:
Середина 21-го століття. Світ поринув в анархії, причиною якої стало масове безпліддя. Над людством нависнула загроза повного вимирання. Позбавлений ілюзій бюрократ перетворюється на чемпіона перегонів на виживання в Лондоні, що роздирається клановими війнами протиборчих угрупувань. Саме він встає на захист «останньої надії людства» - вагітної жінки, яку треба доставити в безпечне місце під нагляд лікарів.


Нагороди (переможець):
Британська академія, 2007 рік: "Краща робота оператора", "Краща робота художника-постановника";
Сатурн, 2007 рік "Кращий науково-фантастичний фільм";
Венеціанський кінофестиваль, 2006 рік: "Золоті Озелли за унікальне технічне сприяння", приз «Laterna Magica»

рейтинг MPAA: R - особам до 17 років обов'язкова присутність батьків або дорослого опікуна
Вікова категорія: 16+

Тривалість: 01:49:14
Якість: 1080p
Відео:
кодек:
розмір кадру: 1920x1040
бітрейт: 8629 кб/с

Аудіо # 1:
мова: українська - Студія "Мова" для
переклад: багатоголосий закадровий (Ролі озвучили: Микола Говор, ще один чоловічий і один чи два жіночих голоси)
кодек: 5.1
бітрейт: 448 кб/с
Примітки щодо інших озвучок українською:

1. Дубляж, який був у кінопрокаті, втрачено.
2. На ліцензійному DVD було озвучення від продюсерського центру Теле-Радіо-Сервіс на замовлення компанії Медіа-Маркет у 2006 році (доріжка накладена на російський дубляж) - відсутня на Гуртом:
Супер-вайзер проекту: Ігор Романенко
Літературний переклад: Еліна Романенко
Звуко-режисер: Віталій Юрченко
Ролі озвучили: Ольга Радчук і Олександр Завальський.
Аудіо # 2:
мова: англійська
переклад: оригінал
кодек: 5.1
бітрейт: 448 кб/с

Субтитри:
мова: англійська
тип: програмні (м'які)
формат: *.srt

Збережено оригінальні розділи, як на Blu-ray.
MediaInfo та

[info]: frame I:810 Avg QP:17.38 size:186969
[info]: frame P:35202 Avg QP:20.41 size: 77318
[info]: frame B:121145 Avg QP:22.84 size: 34531
======================================
General
Unique ID : 208045751951141887755664294300905652203 (0x9C8427836290CC9DADA369A9F5183FEB)
Complete name : Children.of.Men.2006..1080p.Ukr.Eng.mkv
Format : Matroska
Format version : Version 4 / Version 2
File size : 7.26 GiB
Duration : 1h 49mn
Overall bit rate : 9 510 Kbps
Movie name : Дитя людське / Останній нащадок Землі / Children of Men / Дитя человеческое (2006)
Encoded date : UTC 2013-05-05 05:53:23
Writing application : mkvmerge v6.2.0 ('Promised Land') built on Apr 28 2013 12:22:01
Writing library : libebml v1.3.0 + libmatroska v1.4.0

Video
ID : 1
Format : AVC
Format/Info : Advanced Video Codec
Format profile : [email protected]
Format settings, CABAC : Yes
Format settings, ReFrames : 4 frames
Codec ID : V_MPEG4/ISO/AVC
Duration : 1h 49mn
Bit rate : 8 629 Kbps
Width : 1 920 pixels
Height : 1 040 pixels
Display aspect ratio : 1.85:1
Frame rate mode : Constant
Frame rate : 23.976 fps
Color space : YUV
Chroma subsampling : 4:2:0
Bit depth : 8 bits
Scan type : Progressive
Bits/(Pixel*Frame) : 0.180
Stream size : 6.43 GiB (89%)
Title : Дитя людське / Останній нащадок Землі / Children of Men / Дитя человеческое (2006) [Freeisland-taty75]
Writing library : core 130 r2273 b3065e6
Encoding settings : cabac=1 / ref=4 / deblock=1:-1:-1 / analyse=0x3:0x133 / me=umh / subme=10 / psy=1 / psy_rd=1.00:0.00 / mixed_ref=1 / me_range=32 / chroma_me=1 / trellis=2 / 8x8dct=1 / cqm=0 / deadzone=21,11 / fast_pskip=0 / chroma_qp_offset=-2 / threads=6 / lookahead_threads=1 / sliced_threads=0 / nr=0 / decimate=1 / interlaced=0 / bluray_compat=0 / constrained_intra=0 / bframes=10 / b_pyramid=2 / b_adapt=2 / b_bias=0 / direct=3 / weightb=1 / open_gop=0 / weightp=2 / keyint=240 / keyint_min=24 / scenecut=40 / intra_refresh=0 / rc=2pass / mbtree=0 / bitrate=8629 / ratetol=2.0 / qcomp=1.00 / qpmin=0 / qpmax=51 / qpstep=4 / cplxblur=20.0 / qblur=0.5 / ip_ratio=1.40 / pb_ratio=1.30 / aq=1:1.00
Language : English
Default : Yes
Forced : No
Color primaries : BT.709
Transfer characteristics : BT.709
Matrix coefficients : BT.709

Audio #1
ID : 2
Format : AC-3
Format/Info : Audio Coding 3
Mode extension : CM (complete main)
Format settings, Endianness : Big
Codec ID : A_AC3
Duration : 1h 49mn
Bit rate mode : Constant
Bit rate : 448 Kbps
Channel(s) : 6 channels
Channel positions : Front: L C R, Side: L R, LFE
Sampling rate : 48.0 KHz
Bit depth : 16 bits
Compression mode : Lossy
Stream size : 350 MiB (5%)
Title : MVO [TRK Ukraina - Mova] 5.1 448 kbps [Hurtom-Romario_O]
Language : Ukrainian
Default : Yes
Forced : No

Audio #2
ID : 3
Format : AC-3
Format/Info : Audio Coding 3
Mode extension : CM (complete main)
Format settings, Endianness : Big
Codec ID : A_AC3
Duration : 1h 49mn
Bit rate mode : Constant
Bit rate : 448 Kbps
Channel(s) : 6 channels
Channel positions : Front: L C R, Side: L R, LFE
Sampling rate : 48.0 KHz
Bit depth : 16 bits
Compression mode : Lossy
Stream size : 350 MiB (5%)
Title : Original
Language : English
Default : No
Forced : No

Text
ID : 4
Format : UTF-8
Codec ID : S_TEXT/UTF8
Codec ID/Info : UTF-8 Plain Text
Title : Eng full
Language : English
Default : No
Forced : No

Menu
00:00:00.000 : en:00:00:00.000
00:07:17.895 : en:00:07:17.895
00:11:02.662 : en:00:11:02.662
00:16:44.670 : en:00:16:44.670
00:21:07.975 : en:00:21:07.975
00:25:53.134 : en:00:25:53.134
00:30:20.985 : en:00:30:20.985
00:37:27.078 : en:00:37:27.078
00:42:37.888 : en:00:42:37.888
00:47:31.515 : en:00:47:31.515
00:55:28.408 : en:00:55:28.408
01:00:23.661 : en:01:00:23.661
01:07:08.441 : en:01:07:08.441
01:11:53.225 : en:01:11:53.225
01:16:26.707 : en:01:16:26.707
01:21:21.626 : en:01:21:21.626
01:23:50.608 : en:01:23:50.608
01:31:26.564 : en:01:31:26.564
01:34:48.599 : en:01:34:48.599
01:40:18.387 : en:01:40:18.387


Джерела та подяки: ріп відео, оригінальні доріжка та субтитри - taty75 (Freeisland); українська доріжка - Romario_O, постер - hellforces (обидва - Гуртом).

ЗАЛИШАЙТЕСЬ ЯКОМОГА ДОВШЕ НА РОЗДАЧІ, НЕ ОБМЕЖУЙТЕ ШВИДКІСТЬ ВІДДАЧІ!

СКАЧАВ САМ - ДАЙ СКАЧАТИ ІНШИМ


 Трекер:    Зареєстрований   

Завантажити / скачати фільм українською



відео для новачків



 Зареєстрований:   2013-05-05 10:37
 Розмір:   7.26 GB 
 Оцінка фільму:   5.2/10 (Голосів: 22)
   
Kirin 
VIP


З нами з: 28.07.08
Востаннє: 03.12.16
Повідомлень: 257

2013-05-05 15:21  
Для мене це найкращий фільм!
maltster 
Частий відвідувач


З нами з: 15.02.11
Востаннє: 02.12.16
Повідомлень: 39

2013-05-06 17:11  
фільм мені не сподобався - надто вже шаблонний...
ну хіба пройняло наприкінці фільму коли головні герої несли дитину в будинку і всі на них дивились як на щось надзвичайне

ProgBassing 
Відео Гуртом - фільмокрай
Відео Гуртом - фільмокрай


З нами з: 08.03.08
Востаннє: 04.12.16
Повідомлень: 607

2014-04-14 15:19  
галіма гра акторів, депресивна тематика, про пнереклад вже промовчу... все ж таки "Мова" від "України"

...ні, не промовчу - перекладали й звучили кіно блискучі мудила!!!

Ваш часовий пояс: GMT + 2 Години

Нова тема   Відповісти