Завантажити та скачати торренти українською


Скажений Макс 2: Воїн Дороги / Mad Max 2 / The Road Warrior [Unrated] (1981) 1080p Ukr/Eng | Sub Eng

Нові коментарі

Нова тема   Відповісти
Автор Повідомлення
Anonymous 







2013-05-04 01:54  
Скажений Макс 2: Воїн Дороги / Mad Max 2 / The Road Warrior [Unrated] (1981) 1080p Ukr/Eng | Sub Eng

Скажений Макс 2: Воїн Дороги / Mad Max 2 / The Road Warrior [Unrated] (1981) 1080p Ukr/Eng | Sub Eng


Жанр: фантастика, бойовик, трилер, пригодницький
Країна: Австралія



Кіностудія / кінокомпанія: Kennedy Miller Entertainment, Kennedy Miller Productions
Режисер: Джордж Міллер / George Miller
Актори: Мел Ґібсон / Mel Gibson, Брюс Спенс / Bruce Spence, Майкл Престон / Michael Preston, Макс Фіббс / Max Phipps, Вернон Велс / Vernon Wells, К'єль Нілссон / Kjell Nilsson, Еміл Мінті / Emil Minty та інші

Сюжет:
Катастрофа, страшніша за ядерну війну, спіткала нашу цивілізацію. Страшна енергетична криза паралізувала міста, шляхи сполучення - одним словом, усе. За паливо тепер б'ються будь-якими засобами. Тому що там, де бензин - там життя...

Самотній водій Макс бороздить пустелі пост-апокаліптичної Австралії в пошуках пального. Нарешті Макс знаходить станцію, перетворену в табір зі складами пального. Змарнілі, змучені люди як можуть охороняють те, що їм належить. І от, на довершення всіх лих, на табір нападають вороги - люті вояки під керівництвом Гумундуса, садиста і душогуба. Тоді Макс вступає в сутичку...
Цікаві факти про фільм

• В одній зі сцен Макс їсть собачі консерви «Dinki-Di».
• При виході в прокат у США фільм перейменували на «Дорожнього воїна» через те, що перша частина «Скаженого Макса» (1979) пройшла в обмеженому прокаті, тому назва «Божевільний Макс 2» могло ввести глядачів в оману.
• На бензовозі можна помітити логотип «7 Sisters Oil», що є посиланням на одну з популярних свого часу теорій змови - «Standard Oil» і шість інших нафтових компаній контролюють світовий ринок нафти.
• Так як він був досить невідомий на момент виходу фільму У США, у різних роликах картини практично не було Мела Ґібсона, а вся увага приділялася автомобільним погоням і аваріям.
• Джордж Міллер (режисер і один з сценаристів) отримав права на даний фільм і на «Скажений Макс 3: Під куполом грому» (1985), погодившись залишити режисерське крісло на «Контакті» (1997).
• Тільки дві оригінальні моделі «Перехоплювача» були використані у трилогії про Скаженого Макса. Машина, що використовувалась у першому фільм, була модифікована для зйомок другого фільму (всі плани всередині машини і зовнішні великі плани автомобіля). Після закінчення зйомок другої частини ця машина була куплена і відновлена Бобом Форсенко. На даний момент вона перебуває у «Cars of the Stars Motor Museum» в Англії. Другий автомобіль був використаний тільки для сцен автомобільних погонь у другому фільмі. Як і у фільмі, автомобіль був розбитий вщент. Автомобіль, який знаходиться в «Planet Hollywood», є точною копією і ніколи не був використаний ні в одному з фільмів.
• Машина Макса - «1973 Ford Falcon XB GT Coupe». Дана модель була зроблена ексклюзивно для Австралії. Обмежена кількість автомобілів було експортовано до Нової Зеландії і Великобританію. У США даний автомобіль не продавався. Всього було випущено 949 автомобілів даної моделі.
• Кличка собаки - «Собака».
• Самурайські фільми Акіри Куросави і книга Джозефа Кембелла «Герой з тисячею облич» послужили натхненням Террі Хейес, Джорджу Міллеру і Брайану Хеннату для написання сценарію.
• На момент виходу фільму, «Скажений Макс 2» став найдорожчою австралійської картиною в історії.
• На момент виходу фільму, декорації табору по видобутку нафти стали найбільшим знімальним майданчиком, коли-небудь побудованим в Австралії, а їх руйнування - найпотужнішим вибухом в історії австралійського кіно.
• У фільмі міститься цитата колишнього австралійського прем'єр-міністра Гафа Уітлама (1972-1975): «Ми або розіб'ємося, або прорвемося».
рейтинг MPAA: R - особам до 17 років обов'язкова присутність батьків або дорослого опікуна
Вікова категорія: 18+

Тривалість: 01:35:30 (порівняння різних версій фільму)
Якість: 1080p
Відео:
кодек:
розмір кадру: 1912x796
бітрейт: 10899 кб/с

Аудіо # 1:
мова: українська - Студія ТВ+ на замовлення
переклад: багатоголосий закадровий (Ролі озвучили: Борис Георгієвський (Мел Ґібсон), Юрій Кудрявець і один невстановлений жіночий голос)
кодек: 5.1
бітрейт: 384 кб/с

Аудіо # 2:
мова: англійська
переклад: оригінал
кодек: 5.1
бітрейт: 640 кб/с

Субтитри # 1:
мова: англійська (повні)
тип: програмні (м'які)
формат: *.srt

Субтитри # 2:
мова: англійська (SDH - для людей з вадами слуху)
тип: програмні (м'які)
формат: *.srt

Збережено оригінальні розділи, як на Blu-ray.
MediaInfo та
General
Unique ID : 198661549018213564820112106479217020253 (0x9574D29642033AF0A5E32C2EE0900D5D)
Complete name : Mad.Max.2.UNRATED.1981..1080p.Ukr.Eng.mkv
Format : Matroska
Format version : Version 4 / Version 2
File size : 7.95 GiB
Duration : 1h 35mn
Overall bit rate : 11.9 Mbps
Movie name : Скажений Макс 2: Воїн Дороги / Mad Max 2 / Безумный Макс 2: Воин дороги (1981)
Encoded date : UTC 2013-05-03 10:58:15
Writing application : mkvmerge v6.2.0 ('Promised Land') built on Apr 28 2013 12:22:01
Writing library : libebml v1.3.0 + libmatroska v1.4.0

Video
ID : 1
Format : AVC
Format/Info : Advanced Video Codec
Format profile : [email protected]
Format settings, CABAC : Yes
Format settings, ReFrames : 5 frames
Codec ID : V_MPEG4/ISO/AVC
Duration : 1h 35mn
Bit rate : 10.9 Mbps
Width : 1 912 pixels
Height : 796 pixels
Display aspect ratio : 2.40:1
Frame rate mode : Constant
Frame rate : 23.976 fps
Color space : YUV
Chroma subsampling : 4:2:0
Bit depth : 8 bits
Scan type : Progressive
Bits/(Pixel*Frame) : 0.299
Stream size : 7.11 GiB (89%)
Title : Скажений Макс 2: Воїн Дороги / Mad Max 2 / Безумный Макс 2: Воин дороги (1981), rip by K.A.F.
Writing library : core 130 r2273 b3065e6
Encoding settings : cabac=1 / ref=5 / deblock=1:-3:-3 / analyse=0x3:0x133 / me=tesa / subme=11 / psy=1 / psy_rd=1.00:0.10 / mixed_ref=1 / me_range=32 / chroma_me=1 / trellis=2 / 8x8dct=1 / cqm=0 / deadzone=21,11 / fast_pskip=0 / chroma_qp_offset=-3 / threads=12 / lookahead_threads=1 / sliced_threads=0 / nr=0 / decimate=0 / interlaced=0 / bluray_compat=0 / constrained_intra=0 / bframes=3 / b_pyramid=2 / b_adapt=2 / b_bias=0 / direct=3 / weightb=1 / open_gop=0 / weightp=2 / keyint=240 / keyint_min=23 / scenecut=40 / intra_refresh=0 / rc_lookahead=60 / rc=2pass / mbtree=1 / bitrate=10899 / ratetol=1.0 / qcomp=0.60 / qpmin=0 / qpmax=69 / qpstep=4 / cplxblur=20.0 / qblur=0.5 / ip_ratio=1.40 / aq=1:1.00
Language : English
Default : Yes
Forced : No

Audio #1
ID : 2
Format : AC-3
Format/Info : Audio Coding 3
Mode extension : CM (complete main)
Format settings, Endianness : Big
Codec ID : A_AC3
Duration : 1h 35mn
Bit rate mode : Constant
Bit rate : 384 Kbps
Channel(s) : 6 channels
Channel positions : Front: L C R, Side: L R, LFE
Sampling rate : 48.0 KHz
Bit depth : 16 bits
Compression mode : Lossy
Stream size : 262 MiB (3%)
Title : MVO [TV+ for ICTV] 5.1 384 kbps [Hurtom-robotron005]
Language : Ukrainian
Default : Yes
Forced : No

Audio #2
ID : 3
Format : AC-3
Format/Info : Audio Coding 3
Mode extension : CM (complete main)
Format settings, Endianness : Big
Codec ID : A_AC3
Duration : 1h 35mn
Bit rate mode : Constant
Bit rate : 640 Kbps
Channel(s) : 6 channels
Channel positions : Front: L C R, Side: L R, LFE
Sampling rate : 48.0 KHz
Bit depth : 16 bits
Compression mode : Lossy
Stream size : 437 MiB (5%)
Title : Original 5.1ch 640 kbps
Language : English
Default : No
Forced : No

Text #1
ID : 4
Format : UTF-8
Codec ID : S_TEXT/UTF8
Codec ID/Info : UTF-8 Plain Text
Title : Eng full
Language : English
Default : No
Forced : No

Text #2
ID : 5
Format : UTF-8
Codec ID : S_TEXT/UTF8
Codec ID/Info : UTF-8 Plain Text
Title : Eng [SDH]
Language : English
Default : No
Forced : No

Menu
00:00:00.000 : en:Credits
00:01:28.087 : en:A Time of Chaos
00:04:18.633 : en:Double Trouble
00:05:52.810 : en:Loud Scream, Soft Music
00:09:10.841 : en:The Gyro Captain
00:13:31.060 : en:The Refinery From Above
00:16:10.761 : en:Dinner for Two
00:19:08.522 : en:Wez's Arrows of Death
00:23:38.667 : en:A Rescue - in Vain
00:28:24.828 : en:Greetings From the Humungus
00:35:40.221 : en:Weighing Options; Happy Camper
00:37:48.766 : en:Max Makes a Deal
00:39:42.422 : en:Under Cover of Darkness
00:43:01.036 : en:Recovering the Big Rig
00:47:46.989 : en:Hot Pursuit
00:51:04.895 : en:Defending the Compound
00:53:36.796 : en:Planning Departures
00:56:22.295 : en:"Nobody Gets Out of Here Alive."
00:59:44.831 : en:"You're a Scavenger, Max."
01:03:19.587 : en:Max Makes His Run
01:06:21.936 : en:The Booby Trap
01:08:10.920 : en:Retrieved
01:11:41.880 : en:"I'm the Best Chance You've Got."
01:13:33.242 : en:The Exodus Begins
01:16:18.156 : en:Boom!
01:17:23.555 : en:Attacked All Around
01:20:24.862 : en:Casualties of Battle
01:23:17.659 : en:Chaos Around the Driver's Seat
01:27:27.325 : en:Unloading an Unwanted Passenger
01:29:54.722 : en:The Cargo Revealed
01:31:30.694 : en:The Last of the Road Warrior
01:32:33.297 : en:End Credits
=================================================
[info]: frame I:1064 Avg QP:19.21 size:183730
[info]: frame P:43744 Avg QP:21.84 size: 73700
[info]: frame B:92575 Avg QP:22.68 size: 47339


Джерела та подяки: ріп відео, оригінальні доріжка та субтитри - K.A.F. (рутор); українська доріжка - robotron005 (Гуртом) / HDCLUB (мені достеменно невідомо), постер - d1mma (Гуртом).

Особиста оцінка: 8 - один з кращих фільмів про постапокаліптичний світ.

ЗАЛИШАЙТЕСЬ ЯКОМОГА ДОВШЕ НА РОЗДАЧІ, НЕ ОБМЕЖУЙТЕ ШВИДКІСТЬ "ВІДДАЧІ"!

СКАЧАВ САМ - ДАЙ СКАЧАТИ ІНШИМ


Срібний реліз (на рейтинг впливає 50% завантаженого)
 Трекер:    Зареєстрований   

Завантажити / скачати фільм українською



відео для новачків



 Зареєстрований:   2013-05-04 01:54
 Розмір:   7.95 GB 
 Оцінка фільму:   6.9/10 (Голосів: 32)
   
leroykendall 
Модератор HD


З нами з: 03.01.11
Востаннє: 20.11.16
Повідомлень: 749

2013-05-17 23:29  
От би ще першу і третю частини було б клас.
Anonymous 







2013-05-18 11:51  
Днями викладу першу частину.
Anonymous 







2013-05-19 16:37  
Скажений Макс / Mad Max (1979) 1080p Ukr/Eng | Sub Eng - ось перша частина у 1080p.
Ваш часовий пояс: GMT + 2 Години

Нова тема   Відповісти