Завантажити та скачати торренти українською


Наркоз / Awake (2007) 720p 2xUkr/Eng | Sub Ukr/Multi

Нові коментарі

Нова тема   Відповісти
Автор Повідомлення
ValTriK 
Поважний учасник


З нами з: 18.12.11
Востаннє: 16.11.16
Повідомлень: 238

2013-05-03 05:33  
Наркоз / Awake (2007) 720p 2xUkr/Eng | Sub Ukr/Multi

Наркоз / Awake (2007) 720p 2xUkr/Eng | Sub Ukr/Multi


Жанр: трилер, драма, містика
Країна: США



Кіностудія / кінокомпанія: GreeneStreet Films Inc. Open City Films The Weinstein Company LLC
Режисер: Джобі Харольд
Актори: Джесіка Альба — Сем Локвуд, Хейден Крістенсен — Клей Бересфорд, Теренс Дешон Ховард — Доктор Джек Харпер, Лєна Олін — Лілі Бересфорд, Крістофер МакДональд — Доктор Ларі Лупін, Фішер Стівенс — Доктор Путнам

Сюжет:
Клейтон Бересфорд, головний герой фільму, симпатична, успішна і забезпечена людина, має серйозні проблеми з серцем. Тому йому необхідна пересадка, на яку доводиться піти, як тільки з'являється відповідний донор. Незадовго до операції, яку повинен провести друг головного героя, Клейтон вирішує одружитися на своїй дівчині, з якою знайомий вже рік. Проте у момент операції відбувається непередбачуване - Клейтон не засинає, все чує і розуміє, хоча і не може говорити і рухатися. І ось тут йому відкриваються вельми несподівані речі.


Тривалість: 01:24:04
Якість:
Відео:
кодек:
розмір кадру: 1280 x 544
бітрейт: 5631 кб/с

Аудіо # 1:
мова: українська
переклад: багатоголосий закадровий
кодек: 2.0
бітрейт: 192 кб/с
Джерело озвучення:


Аудіо # 2:
мова: українська
переклад: багатоголосий закадровий
кодек: 2.0
бітрейт: 256 кб/с
Джерело озвучення: "Так треба продакшн" на замовлення ТРК Україна

Аудіо # 3:
мова: англійська
переклад: оригінал
кодек: 5.1
бітрейт: 448 кб/с

Аудіо # 4:
мова: англійська
переклад: коментарі режисера Джобі Гарольда
кодек: OGG, Stereo
бітрейт: 80 кб/с

Субтитри:
мова: українська
тип: програмні (м'які)
формат: *.srt

Субтитри:
мова: англійська, Rus, Bra, Cze, Hun, Pol, Rom, Slo, Swe
тип: програмні (м'які)
формат: *.srt
MediaInfo

General
Complete name :Awake (2007) 720p.mkv
Format : Matroska
File size : 4.01 GiB
Duration : 1h 25mn
Overall bit rate : 6 731 Kbps
Movie name : Rip by herrower
Encoded date : UTC 2013-05-03 03:18:38
Writing application : mkvmerge v5.4.0 ('Piper') built on Mar 10 2012 13:34:39
Writing library : libebml v1.2.3 + libmatroska v1.3.0
Video #1
ID : 1
Format : AVC
Format/Info : Advanced Video Codec
Format profile : [email protected]
Format settings, CABAC : Yes
Format settings, ReFrames : 5 frames
Muxing mode : Container [email protected]
Codec ID : V_MPEG4/ISO/AVC
Duration : 1h 25mn
Bit rate : 5 631 Kbps
Nominal bit rate : 5 870 Kbps
Width : 1 280 pixels
Height : 544 pixels
Display aspect ratio : 2.35:1
Frame rate : 23.976 fps
Resolution : 8 bits
Colorimetry : 4:2:0
Scan type : Progressive
Bits/(Pixel*Frame) : 0.337
Stream size : 3.35 GiB (84%)
Title : ViDEO
Writing library : core 65 r997M 65b837f
Encoding settings : cabac=1 / ref=5 / deblock=1:-3:-3 / analyse=0x3:0x133 / me=esa / subme=9 / psy_rd=1.1:0.6 / mixed_ref=1 / me_range=32 / chroma_me=1 / trellis=2 / 8x8dct=1 / cqm=2 / deadzone=21,11 / chroma_qp_offset=-4 / threads=6 / nr=0 / decimate=1 / mbaff=0 / bframes=6 / b_pyramid=1 / b_adapt=2 / b_bias=0 / direct=3 / wpredb=1 / keyint=250 / keyint_min=25 / scenecut=40(pre) / rc=2pass / bitrate=5870 / ratetol=1.0 / qcomp=0.60 / qpmin=10 / qpmax=51 / qpstep=4 / cplxblur=20.0 / qblur=0.5 / ip_ratio=1.40 / pb_ratio=1.30 / aq=1:0.90
Audio #2
ID : 2
Format : AC-3
Format/Info : Audio Coding 3
Codec ID : A_AC3
Duration : 1h 25mn
Bit rate mode : Constant
Bit rate : 192 Kbps
Channel(s) : 2 channels
Channel positions : L R
Sampling rate : 48.0 KHz
Stream size : 117 MiB (3%)
Title : K1
Language : Ukrainian
Audio #3
ID : 3
Format : AC-3
Format/Info : Audio Coding 3
Codec ID : A_AC3
Duration : 1h 25mn
Bit rate mode : Constant
Bit rate : 256 Kbps
Channel(s) : 2 channels
Channel positions : L R
Sampling rate : 48.0 KHz
Stream size : 156 MiB (4%)
Title : Так треба продакшн
Language : Ukrainian
Audio #4
ID : 4
Format : AC-3
Format/Info : Audio Coding 3
Codec ID : A_AC3
Duration : 1h 25mn
Bit rate mode : Constant
Bit rate : 448 Kbps
Channel(s) : 6 channels
Channel positions : Front: L C R, Surround: L R, LFE
Sampling rate : 48.0 KHz
Stream size : 274 MiB (7%)
Title : Оригінал
Audio #5
ID : 5
Format : Vorbis
Format settings, Floor : 1
Codec ID : A_VORBIS
Duration : 1h 25mn
Bit rate mode : Constant
Bit rate : 70.4 Kbps
Channel(s) : 2 channels
Sampling rate : 48.0 KHz
Stream size : 43.0 MiB (1%)
Title : Joby Harold Commentary - Vorbis 2.0
Writing library : libVorbis 1.2 (UTC 2007-06-22)
Text #6
ID : 6
Format : UTF-8
Codec ID : S_TEXT/UTF8
Codec ID/Info : UTF-8 Plain Text
Language : Ukrainian
Text #7
ID : 7
Format : UTF-8
Codec ID : S_TEXT/UTF8
Codec ID/Info : UTF-8 Plain Text
Text #8
ID : 8
Format : UTF-8
Codec ID : S_TEXT/UTF8
Codec ID/Info : UTF-8 Plain Text
Language : Russian
Text #9
ID : 9
Format : UTF-8
Codec ID : S_TEXT/UTF8
Codec ID/Info : UTF-8 Plain Text
Title : Brazilian
Text #10
ID : 10
Format : UTF-8
Codec ID : S_TEXT/UTF8
Codec ID/Info : UTF-8 Plain Text
Language : Czech
Text #11
ID : 11
Format : UTF-8
Codec ID : S_TEXT/UTF8
Codec ID/Info : UTF-8 Plain Text
Text #12
ID : 12
Format : UTF-8
Codec ID : S_TEXT/UTF8
Codec ID/Info : UTF-8 Plain Text
Language : Polish
Text #13
ID : 13
Format : UTF-8
Codec ID : S_TEXT/UTF8
Codec ID/Info : UTF-8 Plain Text
Language : Romanian
Text #14
ID : 14
Format : UTF-8
Codec ID : S_TEXT/UTF8
Codec ID/Info : UTF-8 Plain Text
Language : Slovenian
Text #15
ID : 15
Format : UTF-8
Codec ID : S_TEXT/UTF8
Codec ID/Info : UTF-8 Plain Text
Language : Swedish
Скріншоти


Подяки:
За доріжку №1 від К1 подяка xSlimу
За доріжку №2 від ТРК Україна подяка YureKу.

Джерело: &
Особиста оцінка: 8 - мені сподобалося


 Трекер:    Зареєстрований   

Завантажити / скачати фільм українською



відео для новачків



 Зареєстрований:   2013-05-03 05:33
 Розмір:   4.01 GB 
 Оцінка фільму:   8.8/10 (Голосів: 18)
   
Інші релізи
   Наркоз / Awake (2007) Ukr/Eng xslim  1 / 0   1.57 GB   2013-01-25 14:51 
   Наркоз / Awake (2007) YureK  1 / 0   1.23 GB   2010-01-01 04:23 
rkononenko 
Відео Гуртом - субтитрування
Відео Гуртом - субтитрування


З нами з: 24.02.09
Востаннє: 09.12.16
Повідомлень: 1140

2013-05-03 11:06  
А чого не зробив також просто реліз?
ValTriK 
Поважний учасник


З нами з: 18.12.11
Востаннє: 16.11.16
Повідомлень: 238

2013-05-03 12:59  
rkononenko написано:
А чого не зробив також просто реліз?

я віддаю перевагу HD. звичайний ріп і так є. там переклад практично однаковий, тільки голоса різні, тому сенсу робити ще один звичайний не бачу. якщо маєш бажання робити то дороги можу залити

vilvil-vilvil 
Новенький


З нами з: 19.02.12
Востаннє: 15.09.13
Повідомлень: 3

2013-05-04 03:30  
Цитата:
Країна: США

Треба виправити на Франція.
В поганому розумінні цього слова)

ratbol 
Модератор HD


З нами з: 03.02.09
Востаннє: 07.12.16
Повідомлень: 1088

2013-05-04 08:28  
imdb написано:
Country: USA

vilvil-vilvil 
Новенький


З нами з: 19.02.12
Востаннє: 15.09.13
Повідомлень: 3

2013-05-04 16:53  
ratbol

То я не буквально)
Враження від фільму висловив.

Toris 
Новенький


З нами з: 07.12.10
Востаннє: 06.12.16
Повідомлень: 19

2014-07-23 16:30  
Котрий день, а роздачі як не має...
Ваш часовий пояс: GMT + 2 Години

Нова тема   Відповісти