Завантажити та скачати торренти українською


Любов. Інструкція використання / Manuale d'am3re (2011) 720p Ukr/Ita

Нові коментарі

Нова тема   Відповісти
Автор Повідомлення
ValTriK 
Поважний учасник


З нами з: 18.12.11
Востаннє: 16.11.16
Повідомлень: 238

2013-05-03 00:01  
Любов. Інструкція використання / Manuale d'am3re (2011) 720p Ukr/Ita

Любов. Інструкція використання / Manuale d'am3re (2011) 720p Ukr/Ita


Жанр: мелодрама, комедія
Країна: Італія



Кіностудія / кінокомпанія: Filmauro
Режисер: Джованні Веронезі
Актори: Роберт Де Ніро, Моніка Беллуччі, Мікеле Плачидо, Ріккардо Ськамарчіо, Лаура Кьятті, Валерія Соларіно, Карло Вердоне, Донателла Фінокьяро, Даніеле Печчі, Маріна Рокко

Сюжет:
Три новели оповідають про те, яка буває любов в різні періоди життя і як переплетення доль і життєві випадковості допомагають розібратися в природі людських відчуттів. «Молодість» — це історія, молодого амбітного юриста Роберто, якого напередодні свого весілля несподівано засліплює спалах пристрасті до зовсім іншої жінки. У «Зрілості» успішний телеведучий Фабіо, відданий чоловік і дбайливий батько, по збігу дивних обставин опиняється в обіймах молодої Еліани. «Після» — історія Адріана, американського професора історії мистецтв, який після розлучення вирішує переїхати до Риму. Він самотній і пригнічений. Єдиний, хто виявляє до Адріана хоч якусь цікавість — це швейцар Августо. Саме йому Адріан розповідає свою таємницю: сім років тому він переніс складну операцію на серці. Зглянувшись над самотнім Адріаном, Августо приводить його в свій будинок і знайомить зі своєю сім'єю. Але як тільки Адріан бачить красуню-дочку Августо, він миттєво забуває про шрами на своєму серці.


Тривалість: 02:06:11
Якість:
Відео:
кодек:
розмір кадру: 1280 x 688
бітрейт: 6186 кб/с

Аудіо # 1:
мова: українська
переклад: професійний дубльований
кодек: 5.1
бітрейт: 448 кб/с
Подяка за доріжку karvai0

Джерело озвучення:
"ААА-sound" на офіційне замовлення "Каскад Україна" у 2011.
Інформація про дубляж
Ролі дублювали: Олена Узлюк, Дмитро Завадський, Олександр Бондаренко, Юлія Перенчук, Михайло Жонін, Татяна Зіновенко, Анатолій Зіновенко, Андрій Альохін, Ярослав Чорненький, Андрій Твердак, Євген Горлач, Юрій Ребрик, Ірина Грей та інші.
Режисер дубляжу: Олександр Єфімов і Ірина Грей
Перекладач: Ірина Грей
Аудіо # 2:
мова: італійська
переклад: оригінал
кодек: 5.1
бітрейт: 1536 кб/с

Субтитри:
мова: англійська
тип: програмні (м'які)
формат: *.srt
MediaInfo
General
Complete name : Manuale d'am3re (2011) 720p.mkv
Format : Matroska
File size : 7.32 GiB
Duration : 2h 6mn
Overall bit rate : 8 309 Kbps
Encoded date : UTC 2013-05-02 21:20:16
Writing application : mkvmerge v5.4.0 ('Piper') built on Mar 10 2012 13:34:39
Writing library : libebml v1.2.3 + libmatroska v1.3.0
Video #1
ID : 1
Format : AVC
Format/Info : Advanced Video Codec
Format profile : [email protected]
Format settings, CABAC : Yes
Format settings, ReFrames : 4 frames
Muxing mode : Container [email protected]
Codec ID : V_MPEG4/ISO/AVC
Duration : 2h 6mn
Bit rate : 6186 Kbps
Nominal bit rate : 6 355 Kbps
Width : 1 280 pixels
Height : 688 pixels
Display aspect ratio : 16:9
Frame rate : 24.000 fps
Resolution : 8 bits
Colorimetry : 4:2:0
Scan type : Progressive
Bits/(Pixel*Frame) : 0.293
Stream size : 5.45 GiB (74%)
Writing library : core 112
Encoding settings : cabac=1 / ref=4 / deblock=1:-3:-3 / analyse=0x3:0x113 / me=umh / subme=7 / psy=1 / psy_rd=1.00:0.00 / mixed_ref=1 / me_range=16 / chroma_me=1 / trellis=1 / 8x8dct=1 / cqm=0 / deadzone=21,11 / fast_pskip=1 / chroma_qp_offset=-2 / threads=12 / sliced_threads=0 / nr=0 / decimate=1 / interlaced=0 / constrained_intra=0 / bframes=3 / b_pyramid=2 / b_adapt=2 / b_bias=0 / direct=1 / weightb=1 / open_gop=0 / weightp=2 / keyint=240 / keyint_min=24 / scenecut=40 / intra_refresh=0 / rc_lookahead=50 / rc=2pass / mbtree=1 / bitrate=6355 / ratetol=1.0 / qcomp=0.60 / qpmin=3 / qpmax=51 / qpstep=4 / cplxblur=20.0 / qblur=0.5 / ip_ratio=1.40 / aq=1:1.00
Language : Italian
Color primaries : BT.709-5, BT.1361, IEC 61966-2-4, SMPTE RP177
Transfer characteristics : BT.709-5, BT.1361
Matrix coefficients : BT.709-5, BT.1361, IEC 61966-2-4 709, SMPTE RP177
Audio #2
ID : 2
Format : AC-3
Format/Info : Audio Coding 3
Codec ID : A_AC3
Duration : 2h 6mn
Bit rate mode : Constant
Bit rate : 448 Kbps
Channel(s) : 6 channels
Channel positions : Front: L C R, Surround: L R, LFE
Sampling rate : 48.0 KHz
Video delay : 500ms
Stream size : 404 MiB (5%)
Title : Дубляж R5 /5.1 448 kbps
Language : Ukrainian
Audio #3
ID : 3
Format :
Format/Info : Digital Theater Systems
Codec ID : A_DTS
Duration : 2h 6mn
Bit rate mode : Constant
Bit rate : 1 510 Kbps
Channel(s) : 6 channels
Channel positions : Front: L C R, Surround: L R, LFE
Sampling rate : 48.0 KHz
Resolution : 16 bits
Video delay : 21ms
Stream size : 1.33 GiB (18%)
Title : Оригинал 1536 kbps
Language : Italian
Text #4
ID : 4
Format : UTF-8
Codec ID : S_TEXT/UTF8
Codec ID/Info : UTF-8 Plain Text
Title : Англійські субтитри
Скріншоти


Джерело: &
Особиста оцінка: 8 - мені сподобалося


 Трекер:    Зареєстрований   

Завантажити / скачати фільм українською



відео для новачків



 Зареєстрований:   2013-05-03 00:01
 Розмір:   7.32 GB 
 Оцінка фільму:   10/10 (Голосів: 7)
   
Інші релізи
ratbol 
Модератор HD


З нами з: 03.02.09
Востаннє: 01.12.16
Повідомлень: 1088

2013-05-03 07:17  
ValTriK написано:

ID : 3
Format :
Format/Info : Digital Theater Systems
Codec ID : A_DTS
Duration : 2h 6mn
Bit rate mode : Constant
Bit rate : 1 510 Kbps
Channel(s) : 6 channels
Channel positions : Front: L C R, Surround: L R, LFE
Sampling rate : 48.0 KHz
Resolution : 16 bits
Video delay : 21ms
Stream size : 1.33 GiB (18%)
Title : Оригинал 1536 kbps
Language : Italian


Вказати в описі.

ValTriK 
Поважний учасник


З нами з: 18.12.11
Востаннє: 16.11.16
Повідомлень: 238

2013-05-03 09:38  
ratbol
Вказав.

braveboy 
Відео Гуртом - команда HD
Відео Гуртом - команда HD


З нами з: 15.06.10
Востаннє: 29.10.16
Повідомлень: 958

2013-05-04 04:18  
ValTriK написано:
Bit rate : Kbps

де бітрейт

ValTriK 
Поважний учасник


З нами з: 18.12.11
Востаннє: 16.11.16
Повідомлень: 238

2013-05-05 17:58  
braveboy написано:
де бітрейт

ValTriK написано:
Bit rate : 6186 Kbps

Вже виправив, то коли оформляв замість CTRL+C натиснув CTRL+X Happy

Ваш часовий пояс: GMT + 2 Години

Нова тема   Відповісти