Завантажити та скачати торренти українською


Джек Річер / Jack Reacher (2012) 720p-mini

Нові коментарі

Нова тема   Відповісти
Автор Повідомлення
Drool 
VIP


З нами з: 17.04.10
Востаннє: 10.12.16
Повідомлень: 1270

2013-05-02 23:37  
Джек Річер / Jack Reacher (2012) 720p-mini

Жанр: бойовик, кримінальний, трилер
Країна: США



Кіностудія / кінокомпанія: Mutual Film Corporation, Paramount Pictures, Skydance Productions, TC Productions
Режисер: Крістофер МакКуоррі
Актори: Том Круз, Розамунд Пайк, Річард Дженкінс, Вернер Херцог, Девід Ойєлоуо, Роберт Дювалл, Олександр Родс та інші.

Сюжет:
Снайпер вбиває п'ятьох випадкових перехожих, але всі докази вказують на людину, взяту під варту. На допиті підозрюваний благає про одне - знайти Джека Річера.


Тривалість: 02:10:24
Якість: 720p-mini
Відео:
кодек:
розмір кадру: 1280x544
бітрейт: 2512 кб/с

Аудіо:
мова: українська
переклад: професійний дубльований | LeDoyen Studio
кодек: 5.1
бітрейт: 448 кб/с

Джерело озвучення:
MediaInfo
General
Unique ID : 167561207807714175019637578067355873394 (0x7E0F1D61234E2CBD7D09EEFE8B1FB072)
Complete name : /mnt/disk_d/Video/Films/Jack.Reacher.2012.Ukr.Dub..720p.mkv
Format : Matroska
File size : 2.70 GiB
Duration : 2h 10mn
Overall bit rate : 2 961 Kbps
Movie name : Джек Річер / Jack Reacher (2012) 720p | video by ViSiON
Encoded date : UTC 2013-05-09 09:16:39
Writing application : mkvmerge v4.8.0 ('I Got The...') built on Aug 22 2011 13:16:28
Writing library : libebml v1.2.0 + libmatroska v1.1.0

Video
ID : 1
Format : AVC
Format/Info : Advanced Video Codec
Format profile : [email protected]
Format settings, CABAC : Yes
Format settings, ReFrames : 5 frames
Codec ID : V_MPEG4/ISO/AVC
Duration : 2h 10mn
Bit rate : 2 512 Kbps
Width : 1 280 pixels
Height : 544 pixels
Display aspect ratio : 2.35:1
Frame rate : 23.976 fps
Color space : YUV
Chroma subsampling : 4:2:0
Bit depth : 8 bits
Scan type : Progressive
Bits/(Pixel*Frame) : 0.150
Stream size : 2.24 GiB (83%)
Title : Джек Річер / Jack Reacher (2012) 720p | video by ViSiON
Writing library : core 125 r2200 999b753
Encoding settings : cabac=1 / ref=5 / deblock=1:1:0 / analyse=0x3:0x113 / me=umh / subme=8 / psy=1 / psy_rd=1.00:0.15 / mixed_ref=1 / me_range=16 / chroma_me=1 / trellis=1 / 8x8dct=1 / cqm=0 / deadzone=21,11 / fast_pskip=1 / chroma_qp_offset=-1 / threads=12 / lookahead_threads=2 / sliced_threads=0 / nr=1 / decimate=1 / interlaced=0 / bluray_compat=0 / constrained_intra=0 / bframes=3 / b_pyramid=2 / b_adapt=2 / b_bias=0 / direct=3 / weightb=1 / open_gop=0 / weightp=2 / keyint=250 / keyint_min=23 / scenecut=40 / intra_refresh=0 / rc_lookahead=50 / rc=2pass / mbtree=1 / bitrate=2512 / ratetol=1.0 / qcomp=0.60 / qpmin=0 / qpmax=69 / qpstep=4 / cplxblur=20.0 / qblur=0.5 / ip_ratio=1.40 / aq=1:1.10

Audio
ID : 2
Format : AC-3
Format/Info : Audio Coding 3
Mode extension : CM (complete main)
Codec ID : A_AC3
Duration : 2h 10mn
Bit rate mode : Constant
Bit rate : 448 Kbps
Channel(s) : 6 channels
Channel positions : Front: L C R, Side: L R, LFE
Sampling rate : 48.0 KHz
Bit depth : 16 bits
Compression mode : Lossy
Stream size : 418 MiB (15%)
Title : Українська (дубляж) | DVD (448 kbps)
Language : Ukrainian
Скріншоти










Джерело: відеоряд взято з ріпу іноземної RG ViSiON
Особиста оцінка: 9 - давно не бачив настільки якісне кіно


 Трекер:    Зареєстрований   

Завантажити / скачати фільм українською



відео для новачків



 Зареєстрований:   2013-05-09 11:37
 Розмір:   2.7 GB 
 Оцінка фільму:   9.4/10 (Голосів: 30)
   
Інші релізи
   Джек Річер / Jack Reacher (2012) 2хUkr patriot2305  26 / 6   1.81 GB   2014-03-16 21:02 
   Джек Річер / Jack Reacher (2012) 1080p Ukr/Eng | Sub Ukr/Eng igor911  9 / 0   7.76 GB   2013-05-20 19:03 
   Джек Річер / Jack Reacher (2012) Ukr/Eng | Sub Ukr/Eng patriot2305  8 / 0   2.59 GB   2013-05-10 16:29 
   Джек Річер / Jack Reacher (2012) AVC 2xUkr/Eng | Sub Ukr/Eng Gelios  7 / 1   2.59 GB   2013-05-10 08:17 
   Джек Річер / Jack Reacher (2012) Remux 1080p Ukr/Eng | Sub Ukr/Eng mix14  0 / 0   30.09 GB   2013-05-09 17:19 
   Джек Річер / Jack Reacher (2012) 720p Ukr/Eng | Sub Ukr/Eng 11FrYkT  5 / 0   7.29 GB   2013-05-09 06:30 
bot 
робот


З нами з: 30.09.07
Востаннє: 26.05.05
Повідомлень: 16045

2013-05-02 23:37  
Тему перенесено з Фільми в HD до форуму Анонси релізів від Відео Гуртом


Drool

Drool 
VIP


З нами з: 17.04.10
Востаннє: 10.12.16
Повідомлень: 1270

2013-05-02 23:39  
Орієнтовний розмір - 2,7 Гб. З'явиться, як тільки в мережі спливе українська доріжка.
Alexander_S 
Свій


З нами з: 06.02.09
Востаннє: 10.12.16
Повідомлень: 123

2013-05-03 08:35  
нарешті.
dexter90 
Новенький


З нами з: 05.01.12
Востаннє: 26.07.15
Повідомлень: 16

2013-05-08 16:39  
Коли приблизно чекати реліз???
Varlemond 
Новенький


З нами з: 03.06.12
Востаннє: 09.12.16
Повідомлень: 16

2013-05-08 21:25  
Було б чудово, якщо до більшості релізів (цього теж) йшла і англійська доріжка (навіть при відсутності субтитрів)
Drool 
VIP


З нами з: 17.04.10
Востаннє: 10.12.16
Повідомлень: 1270

2013-05-09 10:53  
Varlemond написано:
Було б чудово, якщо до більшості релізів (цього теж) йшла і англійська доріжка (навіть при відсутності субтитрів)

Оригінальна доріжка обов'язкова для релізів >= 720p, для <=720p-mini не обова'язкова.
Реліз буде приблизно о 12.30.

bot 
робот


З нами з: 30.09.07
Востаннє: 26.05.05
Повідомлень: 16045

2013-05-09 11:37  
Тему перенесено з Анонси релізів від Відео Гуртом до форуму Фільми в HD


Drool

Drool 
VIP


З нами з: 17.04.10
Востаннє: 10.12.16
Повідомлень: 1270

2013-05-09 12:43  
Додав семпл. Приємного перегляду.
wolverine 
VIP


З нами з: 26.09.09
Востаннє: 10.12.16
Повідомлень: 320

2013-05-09 13:38  
авторе релізу, підкажіть будь ласка швидкість свого провайдера
Drool 
VIP


З нами з: 17.04.10
Востаннє: 10.12.16
Повідомлень: 1270

2013-05-09 17:47  
wolverine написано:
авторе релізу, підкажіть будь ласка швидкість свого провайдера

На даний момент - Укртелеком з усіма витікаючими.

geroyasfalta 
Частий відвідувач


З нами з: 20.06.11
Востаннє: 01.12.16
Повідомлень: 33

2013-05-10 09:41  
Дякую! дивився в кінотеатрі! коли побачив що блю-рей вийшов без українського перекладу засмутився,одначе дякуючи Гуртом можу дивитися і на рідній мові!
Ваш часовий пояс: GMT + 2 Години

Нова тема   Відповісти