Завантажити та скачати торренти українською


Червоне сонце / Soleil rouge / Red Sun (1971) 1080p Ukr/Eng | Sub Eng

Нові коментарі

Нова тема   Відповісти
Автор Повідомлення
Anonymous 







2013-05-02 18:27  
Червоне сонце / Soleil rouge / Red Sun (1971) 1080p Ukr/Eng | Sub Eng

Червоне сонце / Soleil rouge / Red Sun (1971) 1080p Ukr/Eng | Sub Eng

Альтернативні постери









Жанр: вестерн, бойовик, триллер, пригодницький
Країна: Франція, Італія, Іспанія



Кіностудія / кінокомпанія: Les Films Corona, Oceania Produzioni Internazionali Cinematografiche, Producciones Balcázar S.A.
Режисер: Теренс Янг / Terence Young
Актори: Чарльз Бронсон / Charles Bronson, Урсула Андрес / Ursula Andress, Тосіро Міфуне / Toshirô Mifune, Ален Делон / Alain Delon, Гвідо Лоллобріджида / Guido Lollobrigida, Капучіне / Capucine, Ентоні Доусон / Anthony Dawson, Жорж Лікан / Georges Lycan, Тетсу Накамура / Tetsu Nakamura та інші

Сюжет:
Незвичайний і чудовий вестерн, в якому беруть участь зірки американського, французького і японського кіно. У сюжеті переплелися елементи самурайських, гангстерських і пригодницьких фільмів.
1871. Дикий Захід. Лінк і Гоч здійснюють напад на потяг, в якому подорожує японський посол. В результаті Гоч кидає свого напарника, забираючи всі гроші і безцінний самурайський меч - подарунок президенту від імператора Японії. Лінк та Курода - єдиний самурай, який супроводжував посла і якому пощастило залишитися живим, змушені забути всі відмінності між ними і відправитися на пошуки Гоча. Для одного це питання грошей, для другого - питання честі. Якщо Курода не поверне меч через сім днів, він повинен буде вбити Лінка і себе.
Найцікавіше у фільмі - зіткнення своєрідних уявлень про честь ковбоя і самурая, для якого бусідо (кодекс честі) - понад життя.


рейтинг MPAA: PG - бажана присутність батьків
Вікова категорія: 15+

Тривалість: 01:54:30
Якість: 1080p
Відео:
кодек:
розмір кадру: 1916х1036
бітрейт: 8920 кб/с

Аудіо # 1:
мова: українська
переклад: багатоголосий закадровий (Ролі озвучили: Олександр Завальський і Наталя Ярошенко)
кодек: 2.0
бітрейт: 192 кб/с
Примітка від п.Lan'а: при озвучуванні в студії українською мовою голоси були накладені на французький дубляж

Аудіо # 2:
мова: англійська
переклад: оригінал
кодек: 2.0
бітрейт: 640 кб/с

Субтитри:
мова: англійська
тип: програмні (м'які)
формат: *.srt

Збережено оригінальні розділи, як на Blu-ray.
MediaInfo та
General
Unique ID : 234366135126940177360337349381547501979 (0xB051469826740849AC512DE51196299B)
Complete name : Red.Sun.1971..1080p.Ukr.Eng.mkv
Format : Matroska
Format version : Version 4 / Version 2
File size : 7.80 GiB
Duration : 1h 54mn
Overall bit rate : 9 754 Kbps
Movie name : Червоне сонце / Soleil rouge / Red Sun / Красное солнце (1971)
Encoded date : UTC 2013-05-02 13:30:19
Writing application : mkvmerge v6.2.0 ('Promised Land') built on Apr 28 2013 12:22:01
Writing library : libebml v1.3.0 + libmatroska v1.4.0

Video
ID : 1
Format : AVC
Format/Info : Advanced Video Codec
Format profile : [email protected]
Format settings, CABAC : Yes
Format settings, ReFrames : 4 frames
Codec ID : V_MPEG4/ISO/AVC
Duration : 1h 54mn
Bit rate : 8 920 Kbps
Width : 1 916 pixels
Height : 1 036 pixels
Display aspect ratio : 1.85:1
Frame rate mode : Constant
Frame rate : 23.976 fps
Color space : YUV
Chroma subsampling : 4:2:0
Bit depth : 8 bits
Scan type : Progressive
Bits/(Pixel*Frame) : 0.187
Stream size : 6.98 GiB (89%)
Title : Червоне сонце / Soleil rouge / Red Sun / Красное солнце (1971), rip by K.A.F.
Writing library : core 130 r2273 b3065e6
Encoding settings : cabac=1 / ref=4 / deblock=1:-3:-3 / analyse=0x3:0x133 / me=tesa / subme=11 / psy=1 / psy_rd=1.00:0.10 / mixed_ref=1 / me_range=32 / chroma_me=1 / trellis=2 / 8x8dct=1 / cqm=0 / deadzone=21,11 / fast_pskip=0 / chroma_qp_offset=-3 / threads=12 / lookahead_threads=1 / sliced_threads=0 / nr=0 / decimate=0 / interlaced=0 / bluray_compat=0 / constrained_intra=0 / bframes=3 / b_pyramid=2 / b_adapt=2 / b_bias=0 / direct=3 / weightb=1 / open_gop=0 / weightp=2 / keyint=240 / keyint_min=23 / scenecut=40 / intra_refresh=0 / rc_lookahead=60 / rc=2pass / mbtree=1 / bitrate=8920 / ratetol=1.0 / qcomp=0.60 / qpmin=0 / qpmax=69 / qpstep=4 / cplxblur=20.0 / qblur=0.5 / ip_ratio=1.40 / aq=1:1.00
Language : English
Default : Yes
Forced : No

Audio #1
ID : 2
Format : AC-3
Format/Info : Audio Coding 3
Format profile : Dolby Digital
Mode extension : CM (complete main)
Format settings, Endianness : Big
Codec ID : A_AC3
Duration : 1h 54mn
Bit rate mode : Constant
Bit rate : 192 Kbps
Channel(s) : 2 channels
Channel positions : Front: L R
Sampling rate : 48.0 KHz
Bit depth : 16 bits
Compression mode : Lossy
Stream size : 157 MiB (2%)
Title : MVO [2+2] 2.0 192 kbps [Hurtom-Lan]
Language : Ukrainian
Default : Yes
Forced : No

Audio #2
ID : 3
Format : AC-3
Format/Info : Audio Coding 3
Mode extension : CM (complete main)
Format settings, Endianness : Big
Codec ID : A_AC3
Duration : 1h 54mn
Bit rate mode : Constant
Bit rate : 640 Kbps
Channel(s) : 2 channels
Channel positions : Front: L R
Sampling rate : 48.0 KHz
Bit depth : 16 bits
Compression mode : Lossy
Stream size : 524 MiB (7%)
Title : Original 2.0 640 kbps
Language : English
Default : No
Forced : No

Text
ID : 4
Format : UTF-8
Codec ID : S_TEXT/UTF8
Codec ID/Info : UTF-8 Plain Text
Title : Eng full
Language : English
Default : No
Forced : No

Menu
00:00:00.000 : en:
00:05:10.559 : en:
00:15:09.950 : en:
00:19:51.397 : en:
00:24:47.527 : en:
00:47:44.277 : en:
00:57:16.349 : en:
01:08:11.212 : en:
01:25:21.741 : en:
01:30:31.634 : en:
01:40:50.919 : en:
01:53:20.251 : en:
01:54:28.862 : en:
=======================================
[info]: frame I:1311 Avg QP:19.19 size:185139
[info]: frame P:48588 Avg QP:22.14 size: 77044
[info]: frame B:114812 Avg QP:24.15 size: 31998


Джерела та подяки: ріп відео, оригінальні доріжка та субтитри - K.A.F. (рутор); українська доріжка (була у релізі K.A.F.) - Lan (зведення) та gig_Panas (запис з ТБ) (всі - Гуртом).

Особиста оцінка: 8 - чудовий вестерн, один з кращих.

ЗАЛИШАЙТЕСЬ ЯКОМОГА ДОВШЕ НА РОЗДАЧІ, НЕ ОБМЕЖУЙТЕ ШВИДКІСТЬ "ВІДДАЧІ"!

СКАЧАВ САМ - ДАЙ СКАЧАТИ ІНШИМ


Срібний реліз (на рейтинг впливає 50% завантаженого)
 Трекер:    Зареєстрований   

Завантажити / скачати фільм українською



відео для новачків



 Зареєстрований:   2013-05-02 18:27
 Розмір:   7.8 GB 
 Оцінка фільму:   5.2/10 (Голосів: 19)
   
Інші релізи
   Червоне сонце / Soleil rouge / Red Sun (1971) Ukr/Eng Lan  2 / 2   1.6 GB   2011-08-27 18:12 
waldi-hurtom 
VIP


З нами з: 07.10.12
Востаннє: 05.12.16
Повідомлень: 611

2013-08-21 21:04  
Непоганий вестерн! 8/10 Дякую!
Anonymous 







2013-08-21 23:47  
waldi-hurtom, тобі дякую за відгуки до фільмів.
Ваш часовий пояс: GMT + 2 Години

Нова тема   Відповісти