Завантажити та скачати торренти українською


Агент під прикриттям / So Undercover (2012) 720p Ukr/Eng

Нові коментарі

Нова тема   Відповісти
Останній раз роздавалося shati666 (2016-12-03)
Автор Повідомлення
pyatachok 
Координатор літератури


З нами з: 30.01.10
Востаннє: 02.12.16
Повідомлень: 1337

2013-05-02 08:41  
Агент під прикриттям / So Undercover (2012) 720p Ukr/Eng

Агент під прикриттям / So Undercover (2012) 720p Ukr/Eng


Жанр: бойовик, комедія
Країна: США



Кіностудія / кінокомпанія: Exclusive Media Group, Crystal City Entertainment, Scarlet Fire Entertainment
Режисер: Том Вон
Актори: Майлі Сайрус, Джошуа Боуман, Джеремі Півен, Отем Різер, Меган Парк

Сюжет:
Головна героїня - Моллі - приватний детектив, найнятий ФБР для розслідування однієї важливої ​​справи. Дівчина відправляється в коледж, щоб під прикриттям потрапити в таємне жіноче товариство.


Тривалість: 01:33:48
Якість: 720p
Відео:
кодек:
розмір кадру: 1280x536
бітрейт: 5585 кб/с

Аудіо:
мова: українська
переклад: професійний дубльований
кодек: 5.1
бітрейт: 448 кб/с

Аудіо #2:
мова: англійська
переклад: оригінал
кодек: 5.1
бітрейт: 640 кб/с

Джерело озвучення:
Скріншоти
Original vs Encode

log
Код:

[info]: using SAR=1/1
[info]: using cpu capabilities: MMX2 SSE2Fast SSSE3 SSE4.2 AVX
[info]: profile High, level 4.1

[info]: frame I:1541  Avg QP:15.90  size:132055
[info]: frame P:31503 Avg QP:18.18  size: 54287
[info]: frame B:101892 Avg QP:19.99  size: 19765
[info]: consecutive B-frames:  2.3%  2.9%  7.4% 40.7% 13.6% 27.5%  5.6%
[info]: mb I  I16..4: 15.6% 56.9% 27.5%
[info]: mb P  I16..4:  2.2% 17.8%  3.0%  P16..4: 23.4% 29.1% 14.0%  3.2%  0.4%    skip: 6.9%
[info]: mb B  I16..4:  0.3%  2.3%  0.3%  B16..8: 33.6% 25.1%  5.7%  direct: 7.8%  skip:25.0%  L0:37.9% L1:41.0% BI:21.1%
[info]: 8x8 transform intra:74.9% inter:53.6%
[info]: direct mvs  spatial:98.6% temporal:1.4%
[info]: coded y,uvDC,uvAC intra: 87.7% 95.3% 89.4% inter: 36.2% 39.4% 19.5%
[info]: i16 v,h,dc,p: 51%  7% 13% 29%
[info]: i8 v,h,dc,ddl,ddr,vr,hd,vl,hu: 14%  8% 10%  9% 12% 13% 11% 12% 12%
[info]: i4 v,h,dc,ddl,ddr,vr,hd,vl,hu: 17%  8%  8%  8% 13% 14% 11% 11% 11%
[info]: i8c dc,h,v,p: 49% 14% 17% 19%
[info]: Weighted P-Frames: Y:6.6% UV:3.6%
[info]: ref P L0: 49.2% 10.8% 16.5%  7.6%  5.4%  4.0%  3.1%  2.0%  1.4%  0.1%  0.0%
[info]: ref B L0: 78.6% 10.7%  4.5%  2.4%  1.6%  1.2%  0.6%  0.2%
[info]: ref B L1: 95.1%  4.9%
[info]: kb/s:5582.99
MediaInfo
Код:
General
Unique ID                                : 247454301795829875240993553601417364416 (0xBA29F7083F745518BE4F8EB9756AC3C0)
Complete name                            : E:\SO_UNDERCOVER_HDCLUB\BDMV\STREAM\00004-muxed (1).mkv
Format                                   : Matroska
Format version                           : Version 4 / Version 2
File size                                : 4.37 GiB
Duration                                 : 1h 33mn
Overall bit rate                         : 6 673 Kbps
Encoded date                             : UTC 2013-05-02 19:39:14
Writing application                      : mkvmerge v6.1.0 ('Old Devil') built on Mar  2 2013 14:32:37
Writing library                          : libebml v1.3.0 + libmatroska v1.4.0

Video
ID                                       : 1
Format                                   : AVC
Format/Info                              : Advanced Video Codec
Format profile                           : [email protected]
Format settings, CABAC                   : Yes
Format settings, ReFrames                : 9 frames
Codec ID                                 : V_MPEG4/ISO/AVC
Duration                                 : 1h 33mn
Bit rate                                 : 5 585 Kbps
Width                                    : 1 280 pixels
Height                                   : 536 pixels
Display aspect ratio                     : 2.40:1
Frame rate mode                          : Constant
Frame rate                               : 23.976 fps
Color space                              : YUV
Chroma subsampling                       : 4:2:0
Bit depth                                : 8 bits
Scan type                                : Progressive
Bits/(Pixel*Frame)                       : 0.340
Stream size                              : 3.57 GiB (82%)
Writing library                          : core 130 r2273 b3065e6
Encoding settings                        : cabac=1 / ref=9 / deblock=1:-3:-3 / analyse=0x3:0x133 / me=umh / subme=11 / psy=1 / psy_rd=1.00:0.15 / mixed_ref=1 / me_range=32 / chroma_me=1 / trellis=2 / 8x8dct=1 / cqm=0 / deadzone=21,11 / fast_pskip=0 / chroma_qp_offset=-3 / threads=12 / lookahead_threads=1 / sliced_threads=0 / nr=0 / decimate=1 / interlaced=0 / bluray_compat=0 / constrained_intra=0 / bframes=6 / b_pyramid=2 / b_adapt=2 / b_bias=0 / direct=3 / weightb=0 / open_gop=0 / weightp=2 / keyint=240 / keyint_min=23 / scenecut=40 / intra_refresh=0 / rc=2pass / mbtree=0 / bitrate=5585 / ratetol=1.0 / qcomp=0.60 / qpmin=0 / qpmax=69 / qpstep=4 / cplxblur=20.0 / qblur=0.5 / ip_ratio=1.40 / pb_ratio=1.30 / aq=1:1.00
Default                                  : Yes
Forced                                   : No

Audio #1
ID                                       : 2
Format                                   : AC-3
Format/Info                              : Audio Coding 3
Mode extension                           : CM (complete main)
Format settings, Endianness              : Big
Codec ID                                 : A_AC3
Duration                                 : 1h 33mn
Bit rate mode                            : Constant
Bit rate                                 : 448 Kbps
Channel(s)                               : 6 channels
Channel positions                        : Front: L C R, Side: L R, LFE
Sampling rate                            : 48.0 KHz
Bit depth                                : 16 bits
Compression mode                         : Lossy
Stream size                              : 301 MiB (7%)
Language                                 : Ukrainian
Default                                  : Yes
Forced                                   : No

Audio #2
ID                                       : 3
Format                                   : AC-3
Format/Info                              : Audio Coding 3
Mode extension                           : CM (complete main)
Format settings, Endianness              : Big
Codec ID                                 : A_AC3
Duration                                 : 1h 33mn
Bit rate mode                            : Constant
Bit rate                                 : 640 Kbps
Channel(s)                               : 6 channels
Channel positions                        : Front: L C R, Side: L R, LFE
Sampling rate                            : 48.0 KHz
Bit depth                                : 16 bits
Compression mode                         : Lossy
Stream size                              : 429 MiB (10%)
Language                                 : English
Default                                  : No
Forced                                   : No

Menu
00:00:00.000                             : en:Chapter 01
00:05:43.217                             : en:Chapter 02
00:11:04.455                             : en:Chapter 03
00:17:02.396                             : en:Chapter 04
00:23:14.393                             : en:Chapter 05
00:28:34.045                             : en:Chapter 06
00:35:26.040                             : en:Chapter 07
00:42:49.817                             : en:Chapter 08
00:48:56.725                             : en:Chapter 09
00:54:41.403                             : en:Chapter 10
01:01:19.509                             : en:Chapter 11
01:05:37.642                             : en:Chapter 12
01:10:23.969                             : en:Chapter 13
01:18:27.661                             : en:Chapter 14
01:24:49.667                             : en:Chapter 15
01:29:15.308                             : en:Chapter 16

Джерело:
Особиста оцінка: 6 - не фонтан, але дивитись можна.


 Трекер:    Зареєстрований   

Завантажити / скачати фільм українською



відео для новачків



 Зареєстрований:   2013-05-02 23:21
 Розмір:   4.37 GB 
 Оцінка фільму:   10/10 (Голосів: 2)
   
Інші релізи
   Агент під прикриттям / So Undercover (2012) AngryBirdsUA  2 / 0   1.45 GB   2013-04-20 10:45 
bot 
робот


З нами з: 30.09.07
Востаннє: 26.05.05
Повідомлень: 15975

2013-05-02 08:41  
Тему перенесено з Фільми в HD до форуму Анонси релізів від Відео Гуртом


pyatachok

eminem0081 
Свій


З нами з: 07.09.11
Востаннє: 01.12.16
Повідомлень: 60

2013-05-02 22:29  
скріншоти вражають
-TooL- 
Свій


З нами з: 02.05.13
Востаннє: 02.12.16
Повідомлень: 61

2013-05-02 23:06  
eminem0081 написано:
скріншоти вражають

там примітка "Original vs Encode", хоча я і сам не бачу жодної різниці, який сенс у цьому?

pyatachok 
Координатор літератури


З нами з: 30.01.10
Востаннє: 02.12.16
Повідомлень: 1337

2013-05-02 23:09  
eminem0081
Якщо відсутність скріншотів в анонсі вас вразила, то я собі уявляю, що зараз твориться...

Додано через 1 хвилину 1 секунду:

-TooL- написано:
який сенс у цьому?

думаю тепер розумієте...якщо далі ні, то можу пояснити.

ValTriK 
Поважний учасник


З нами з: 18.12.11
Востаннє: 16.11.16
Повідомлень: 238

2013-05-02 23:38  
pyatachok
Ріп робився з Blu-ray 1080p AVC -HD 5.1 ?

-TooL- 
Свій


З нами з: 02.05.13
Востаннє: 02.12.16
Повідомлень: 61

2013-05-02 23:43  
pyatachok написано:
думаю тепер розумієте...якщо далі ні, то можу пояснити.

Типу після перекодовування якість та ж сама майже не змінилася?

pyatachok 
Координатор літератури


З нами з: 30.01.10
Востаннє: 02.12.16
Повідомлень: 1337

2013-05-03 12:08  
ValTriK
Так.
-TooL-
Грубо кажучи так.

bal8tazar 
Новенький


З нами з: 02.11.08
Востаннє: 02.12.16
Повідомлень: 3

2014-05-14 22:53  
станьте хтось на роздачу, будьласка
Ваш часовий пояс: GMT + 2 Години

Нова тема   Відповісти