Завантажити та скачати торренти українською


Скотт Пілігрим проти Світу / Scott Pilgrim vs. the World (2010) 720p 2xUkr/Eng | Sub Eng

Нові коментарі

Нова тема   Відповісти
Автор Повідомлення
Anonymous 







2013-05-01 08:36  
Скотт Пілігрим проти Світу / Scott Pilgrim vs. the World (2010) 720p 2xUkr/Eng | Sub Eng




Жанр: комедія, фантастика
Країна: США



Кіностудія / кінокомпанія: Universal Pictures, Marc Platt Productions, Big Talk Productions
Режисер: Едґар Райт
Актори: Майкл Сера, Мері Елізабет Уінстед, Кієран Калкін, Кріс Еванз, Анна Кендрік, Елісон Піл, Брендон Рут, Джейсон Шварцман

Сюжет:
Рок-музикант Скотт Пілігрим знайшов дівчину своєї мрії. Але на його шляху стоїть складніше завдання: щоб зустрічатися з нею, Скотту доведеться перемогти її сімох злих колишніх.
Але найголовніший суперник - не ці семеро колишніх...


Тривалість: 01:52:23
Якість: 720p
Відео:
кодек:
розмір кадру: 1280x694
бітрейт: ~6000 кб/с

Аудіо # 1:
мова: українська
переклад: багатоголосий закадровий
кодек: 2.0
бітрейт: 192 кб/с

Аудіо # 2:
мова: українська
переклад: багатоголосий закадровий
кодек: 2.0
бітрейт: 256 кб/с

Джерело озвучення:
Товариство "Три Крапки"

Аудіо # 3:
мова: англійська
переклад: оригінал
кодек: 5.1
бітрейт: 448 кб/с

Субтитри:
мова: англійська
тип: програмні (м'які)
формат: *.srt

Скріншоти







MediaInfo
General
Unique ID : 248102514547014096877572361776985218955 (0xBAA6CE63692194868347C49BE3CB1F8B)
Complete name : Scott Pilgrim vs. the World (2010) [2xUkr,Eng sub.Eng] 720p [Hurtom].mkv
Format : Matroska
Format version : Version 4 / Version 2
File size : 5.41 GiB
Duration : 1h 52mn
Overall bit rate : 6 893 Kbps
Movie name : Скотт Пілігрим проти Світу / Scott Pilgrim vs. the World (2010) 720p [Hurtom]
Encoded date : UTC 2013-10-19 05:43:39
Writing application : mkvmerge v6.4.1 ('Omega Point') built on Sep 16 2013 22:05:10
Writing library : libebml v1.3.0 + libmatroska v1.4.1

Video
ID : 1
Format : AVC
Format/Info : Advanced Video Codec
Format profile : [email protected]
Format settings, CABAC : Yes
Format settings, ReFrames : 8 frames
Codec ID : V_MPEG4/ISO/AVC
Duration : 1h 52mn
Bit rate : 6 000 Kbps
Width : 1 280 pixels
Height : 694 pixels
Display aspect ratio : 1.85:1
Frame rate mode : Constant
Frame rate : 23.976 fps
Color space : YUV
Chroma subsampling : 4:2:0
Bit depth : 8 bits
Scan type : Progressive
Bits/(Pixel*Frame) : 0.282
Stream size : 4.60 GiB (85%)
Title : Скотт Пілігрим проти Світу / Scott Pilgrim vs. the World / Скотт Пилигрим против всех (2010) 720p [EbP]
Writing library : core 107 r1745 4785e8e
Encoding settings : cabac=1 / ref=8 / deblock=1:-3:-3 / analyse=0x3:0x113 / me=tesa / subme=10 / psy=1 / psy_rd=0.80:0.00 / mixed_ref=1 / me_range=16 / chroma_me=1 / trellis=2 / 8x8dct=1 / cqm=0 / deadzone=21,11 / fast_pskip=0 / chroma_qp_offset=-2 / threads=12 / sliced_threads=0 / nr=0 / decimate=0 / interlaced=0 / constrained_intra=0 / bframes=7 / b_pyramid=2 / b_adapt=2 / b_bias=0 / direct=3 / weightb=1 / open_gop=0 / weightp=2 / keyint=250 / keyint_min=23 / scenecut=40 / intra_refresh=0 / rc=2pass / mbtree=0 / bitrate=6000 / ratetol=1.0 / qcomp=0.60 / qpmin=10 / qpmax=51 / qpstep=4 / cplxblur=20.0 / qblur=0.5 / ip_ratio=1.40 / pb_ratio=1.30 / aq=1:0.90
Language : English
Default : No
Forced : No

Audio #1
ID : 2
Format : AC-3
Format/Info : Audio Coding 3
Mode extension : CM (complete main)
Format settings, Endianness : Big
Codec ID : A_AC3
Duration : 1h 52mn
Bit rate mode : Constant
Bit rate : 192 Kbps
Channel(s) : 2 channels
Channel positions : Front: L R
Sampling rate : 48.0 KHz
Bit depth : 16 bits
Compression mode : Lossy
Stream size : 154 MiB (3%)
Title : MVO [NLO TV] 2.0 192 kbps [Hurtom-patriot2305]
Language : Ukrainian
Default : Yes
Forced : No

Audio #2
ID : 3
Format : AC-3
Format/Info : Audio Coding 3
Mode extension : CM (complete main)
Format settings, Endianness : Big
Codec ID : A_AC3
Duration : 1h 52mn
Bit rate mode : Constant
Bit rate : 256 Kbps
Channel(s) : 2 channels
Channel positions : Front: L R
Sampling rate : 48.0 KHz
Bit depth : 16 bits
Compression mode : Lossy
Stream size : 206 MiB (4%)
Title : MVO [3 krapky] 2.0 256 kbps [Hurtom-Leben]
Language : Ukrainian
Default : No
Forced : No

Audio #3
ID : 4
Format : AC-3
Format/Info : Audio Coding 3
Mode extension : CM (complete main)
Format settings, Endianness : Big
Codec ID : A_AC3
Duration : 1h 52mn
Bit rate mode : Constant
Bit rate : 448 Kbps
Channel(s) : 6 channels
Channel positions : Front: L C R, Side: L R, LFE
Sampling rate : 48.0 KHz
Bit depth : 16 bits
Compression mode : Lossy
Stream size : 360 MiB (6%)
Title : Original 5.1 448 kbps
Language : English
Default : No
Forced : No

Text
ID : 5
Format : UTF-8
Codec ID : S_TEXT/UTF8
Codec ID/Info : UTF-8 Plain Text
Title : Eng full
Language : English
Default : No
Forced : No


За запис з ТБ подяка п. MAKAPOHHIK та п. Sando7

Джерело:
Особиста оцінка: 8





Золотий реліз (завантажене не впливає на рейтинг)
 Трекер:    Зареєстрований   

Завантажити / скачати фільм українською



відео для новачків



 Зареєстрований:   2013-10-19 08:34
 Розмір:   5.41 GB 
 Оцінка фільму:   8.6/10 (Голосів: 24)
   
Virake 
Localize Team
Localize Team


З нами з: 07.07.09
Востаннє: 10.12.16
Повідомлень: 4074

2013-05-03 14:24  
колись бачив рекламу по ТБ. наче щось дотепне. глянемо.
Anonymous 







2013-05-03 19:09  
У мене в селі щойно була серйозна гроза, в результаті було пошкоджено мережу електропостачання та інтернет-кабель, тож на роздачу зможу повернутися тільки після того як все відремонтують, коли це буде я не знаю
somnambula 
Відео Гуртом - дизайнер
Відео Гуртом - дизайнер


З нами з: 06.11.09
Востаннє: 09.12.16
Повідомлень: 760

2013-05-03 20:01  
От бляха(((
spacelord 
Новенький


З нами з: 24.08.09
Востаннє: 10.12.16
Повідомлень: 13

2013-05-03 23:23  
ДУЖЕ класний фільм. Дивився в оригіналі кілька років тому.
Кіно неординарне і дуже оригінальне.
Ну і взагалі Едгар Райт знімає тільки класні фільмиHappy

Virake 
Localize Team
Localize Team


З нами з: 07.07.09
Востаннє: 10.12.16
Повідомлень: 4074

2013-05-13 17:58  
цікавий фільм. дуже оригінальний і енергійний. але забагато голубих приколів. невже без них ніяк? головний герой прокидається в одному ліжку з трьома гомиками (при чому сам він натурал). це, звичайно, дотепно, але гидко.

у всьому іншому, загалом, якісне кіно. 8 з 10.

Додано через 1 хвилину 45 секунд:

окремо хочу відзначити озвучку - дуже класна. браво, Три Крапки!

Anonymous 







2013-10-19 09:12  
Торрент перезалито!!! Додано доріжку від НЛО-ТБ...

ProgBassing 
Відео Гуртом - фільмокрай
Відео Гуртом - фільмокрай


З нами з: 08.03.08
Востаннє: 09.12.16
Повідомлень: 608

2014-10-09 18:15  
patriot2305 написано:
Додано доріжку від НЛО-ТБ...

чому ж НЛО-ТБ, якщо в кінцевих титрах навіть говорять, що то канал "Україна" озвучив?! НЛО просто їх, Українівський, суб-канал. ...переклад буже навіть годящий, в "3-х крапок" все ще непоставлені голоси і саме це дає їм слабинку, коли пробуєш порівняти ті дві "дороги".

Фільм дуже кльовий, уявляю як би він мене порвав у мої 15-18 років (десь на такі роко-рамки фільма і зорієнтована), фантастично "в темний" монтаж і вся-вся-вся графіка, в процесі перегляду вона не дратувала, бо тут графіка не заради самої графіки, а графіка як інструмент для відображення численних коміксошних фішок - задум на 5/5, виконання 5/5! Сюжет так само класний!

theirvin 
Новенький


З нами з: 26.10.14
Востаннє: 06.12.16
Повідомлень: 7

2016-01-19 22:01  
Тааак, переглядав неодноразово, фільм розтаскав на цитати і гіфки. Не знаходжу чогось поганого у цьому фільмі, а відтак тверде 10
Olkos 
VIP


З нами з: 07.03.09
Востаннє: 09.12.16
Повідомлень: 534

2016-06-06 07:44  
Хороша комедія. Непогана музика, веселі бої проти "колишніх".
Ваш часовий пояс: GMT + 2 Години

Нова тема   Відповісти