Завантажити та скачати торренти українською


Спокусник / Kokowääh (2011) 1080p Ukr/Ger | Sub Eng

Нові коментарі

Нова тема   Відповісти
Автор Повідомлення
Anonymous 







2013-04-29 00:44  
Спокусник / Kokowääh (2011) 1080p Ukr/Ger | Sub Eng

Спокусник / Kokowääh (2011) 1080p Ukr/Ger | Sub Eng


Жанр: мелодрама, комедія
Країна: Німеччина



Кіностудія / кінокомпанія: Bela Jarzyk Production, Sat.1, Warner Bros., barefoot films
Режисер: Тіль Швайґер / Til Schweiger
Актори: Тіль Швайґер / Til Schweiger (Henry), Емма Швайґер / Emma Schweiger (Magdalena), Жасмін Ґерат / Jasmin Gerat (Katharina), Семюел Фінці / Samuel Finzi (Tristan), Нуман Акар / Numan Acar (Arbeiter), Мерет Беккер / Meret Becker (Charlotte), Анне-Софі Бріст / Anne-Sophie Briest (Mutter Supermarkt), Анна Юлія Капфельшпергер / Anna Julia Kapfelsperger (Bine), Фрідеріке Кемптер / Friederike Kempter (Agentin), Торстен Кюнстлер / Torsten Kunstler (Kurier)


Сюжет:
Письменник Генрі страждає від нерозділеного кохання і творчої кризи. Як сніг на голову на нього звалюється пропозиція про роботу над сценарієм кінострічки, в якій візьме участь його колишня подруга Катаріна, в яку він закоханий і понині. Виникає надія на другий шанс, але поява восьмирічної Магдалени все змінює.


Вікова категорія: 16+

Тривалість: 02:06:34
Якість: 1080p
Відео:
кодек:
розмір кадру: 1920x816
бітрейт: 8068 кб/с

Аудіо # 1:
мова: українська - AAA-sound
переклад: професійний дубльований
кодек: 5.1
бітрейт: 384 кб/с
Інформація про озвучення:

Ролі дублювали: Дмитро Завадський, Жасмін Ґерат/Катаріна — Юлія Перенчук, Еліна Ененберг, Тетяна Зіновенко, Анатолій Зіновенко, Юрій Ребрик, Олена Яблучна, Ірина Грей, Андрій Альохін, Олександр Ігнатуша та інші.
Аудіо # 2:
мова: німецька
переклад: оригінал
кодек: 5.1
бітрейт: 448 кб/с

Субтитри:
мова: англійська
тип: програмні (м'які)
формат: *.srt

Збережено оригінальні розділи, як на Blu-ray
MediaInfo
General
Unique ID : 174956565690656709909283646119715094072 (0x839F68AC8FBB715593D4A8DCAEBD3E38)
Complete name : Kokowaah.2011..1080p.Ukr.Ger.mkv
Format : Matroska
Format version : Version 4 / Version 2
File size : 7.87 GiB
Duration : 2h 6mn
Overall bit rate : 8 898 Kbps
Movie name : Спокусник / Kokowääh / Соблазнитель (2011)
Encoded date : UTC 2013-04-28 07:57:05
Writing application : mkvmerge v6.1.0 ('Old Devil') built on Mar 2 2013 14:32:37
Writing library : libebml v1.3.0 + libmatroska v1.4.0

Video
ID : 1
Format : AVC
Format/Info : Advanced Video Codec
Format profile : [email protected]
Format settings, CABAC : Yes
Format settings, ReFrames : 4 frames
Codec ID : V_MPEG4/ISO/AVC
Duration : 2h 6mn
Bit rate : 8 068 Kbps
Width : 1 920 pixels
Height : 816 pixels
Display aspect ratio : 2.35:1
Frame rate mode : Constant
Frame rate : 23.976 fps
Color space : YUV
Chroma subsampling : 4:2:0
Bit depth : 8 bits
Scan type : Progressive
Bits/(Pixel*Frame) : 0.215
Stream size : 6.97 GiB (89%)
Title : Спокусник / Kokowääh / Соблазнитель (2011), [FREEISLAHD-delia]
Writing library : core 130 r2273kMod b3065e6
Encoding settings : cabac=1 / ref=4 / deblock=1:-3:-3 / analyse=0x3:0x113 / me=umh / subme=11 / psy=1 / fade_compensate=0.00 / psy_rd=0.90:0.00 / mixed_ref=1 / me_range=48 / chroma_me=1 / trellis=2 / 8x8dct=1 / cqm=0 / deadzone=21,11 / fast_pskip=0 / chroma_qp_offset=-2 / threads=6 / lookahead_threads=1 / sliced_threads=0 / nr=0 / decimate=1 / interlaced=0 / bluray_compat=0 / constrained_intra=0 / bframes=8 / b_pyramid=2 / b_adapt=2 / b_bias=0 / direct=3 / weightb=1 / open_gop=0 / weightp=2 / keyint=250 / keyint_min=23 / scenecut=40 / intra_refresh=0 / rc_lookahead=40 / rc=2pass / mbtree=0 / bitrate=8068 / ratetol=1.0 / qcomp=0.75 / qpmin=0 / qpmax=69 / qpstep=4 / cplxblur=20.0 / qblur=0.5 / vbv_maxrate=50000 / vbv_bufsize=62500 / nal_hrd=none / ip_ratio=1.40 / pb_ratio=1.30 / aq=1:0.70
Language : English
Default : Yes
Forced : No
Color primaries : BT.709
Transfer characteristics : BT.709
Matrix coefficients : BT.709

Audio #1
ID : 2
Format : AC-3
Format/Info : Audio Coding 3
Mode extension : CM (complete main)
Format settings, Endianness : Big
Codec ID : A_AC3
Duration : 2h 6mn
Bit rate mode : Constant
Bit rate : 384 Kbps
Channel(s) : 6 channels
Channel positions : Front: L C R, Side: L R, LFE
Sampling rate : 48.0 KHz
Bit depth : 16 bits
Compression mode : Lossy
Delay relative to video : 1s 68ms
Stream size : 348 MiB (4%)
Title : Dub [AAA-sound] 5.1 384 kbps [Hurtom-Skiff]
Language : Ukrainian
Default : Yes
Forced : No

Audio #2
ID : 3
Format : AC-3
Format/Info : Audio Coding 3
Mode extension : CM (complete main)
Format settings, Endianness : Big
Codec ID : A_AC3
Duration : 2h 6mn
Bit rate mode : Constant
Bit rate : 448 Kbps
Channel(s) : 6 channels
Channel positions : Front: L C R, Side: L R, LFE
Sampling rate : 48.0 KHz
Bit depth : 16 bits
Compression mode : Lossy
Stream size : 406 MiB (5%)
Title : Original
Language : German
Default : No
Forced : No

Text
ID : 4
Format : UTF-8
Codec ID : S_TEXT/UTF8
Codec ID/Info : UTF-8 Plain Text
Title : Eng full
Language : English
Default : No
Forced : No

Menu
00:00:00.000 : en:00:00:00.000
00:12:18.028 : en:00:12:18.028
00:18:56.677 : en:00:18:56.677
00:27:52.045 : en:00:27:52.045
00:35:32.588 : en:00:35:32.588
00:41:00.332 : en:00:41:00.332
00:50:42.873 : en:00:50:42.873
00:56:55.703 : en:00:56:55.703
01:02:21.487 : en:01:02:21.487
01:09:03.180 : en:01:09:03.180
01:17:44.368 : en:01:17:44.368
01:27:07.347 : en:01:27:07.347
01:39:57.449 : en:01:39:57.449
01:46:11.656 : en:01:46:11.656
01:56:57.135 : en:01:56:57.135


Джерела та подяки: ріп відео, оригінальна доріжка, саби - delia (FREEISLAHD), українська доріжка - з релізу Skiff'а (Гуртом).

Особиста оцінка: 8 - мені сподобалося


 Трекер:    Зареєстрований   

Завантажити / скачати фільм українською



відео для новачків



 Зареєстрований:   2013-04-29 00:44
 Розмір:   7.87 GB 
 Оцінка фільму:   5.6/10 (Голосів: 22)
   
Інші релізи
   Спокусник / Kokowääh (2011) AVC 2xUkr/Ger bodia87  4 / 0   2.11 GB   2016-03-15 16:41 
   Спокусник / Kokowääh (2011) Zetonik-z  0 / 0   1.37 GB   2011-10-01 15:13 
   Спокусник / Kokowääh (2011) Skiff  6 / 0   2 GB   2011-09-20 22:41 
ArteMiY 
Свій


З нами з: 08.07.08
Востаннє: 02.12.16
Повідомлень: 71

2015-03-21 19:12  
чось типу серіалу але за 2 години
Ваш часовий пояс: GMT + 2 Години

Нова тема   Відповісти