Завантажити та скачати торренти українською


Відшкодування збитків / Супутні жертви / Collateral Damage (2002) 1080p 2xUkr/Eng | Sub Eng

Нові коментарі

Нова тема   Відповісти
Автор Повідомлення
Anonymous 







2013-04-28 14:15  
Відшкодування збитків / Супутні жертви / Collateral Damage (2002) 1080p 2xUkr/Eng | Sub Eng



Жанр: бойовик, трилер, драма
Країна: США



Кіностудія / кінокомпанія: Warner Bros, Bel Air Entertainment, David Foster Productions, Hacienda Productions
Режисер: Ендрю Девіс / Andrew Davis
Актори: Арнольд Шварценеґґер / Arnold Schwarzenegger, Франческа Нері / Francesca Neri, Еліас Котеас / Elias Koteas, Кліфф Кертіс / Cliff Curtis, Джон Легуізамо / John Leguizamo та інші.

Сюжет:
Державні структури, які розслідують теракт, радять Горді Брюеру не втручатися в цю справу. Але він вже втрутився в неї найстрашнішим чином: його дружина і син стали жертвами вибуху бомби. Брюер, пожежник з Лос-Анджелеса, повний рішучості знайти невловимого терориста на ім`я Ель Лобо.
Брюер знає, що Ель Лобо нанесе свій наступний удар саме тут. Але як? Коли? І де саме? У болісному пошуку відповідей на ці питання зрозуміло лише одне: відшкодування збитку — це клацаюча бомба постійної напруги.


Цікаво, що прем'єру фільму було перенесено через теракт 11 вересня з 5 жовтня 2001 року на 8 лютого 2002 року.

Рейтинг MPAA: R - особам до 17 років обов'язкова присутність батьків або дорослого опікуна
Вікова категорія: 16+

Тривалість: 01:48:48
Якість: 1080p
Відео:
кодек:
розмір кадру: 1920x1080
бітрейт: 9310 кбіт/с

Аудіо # 1:
мова: українська - Студія "ТВ+"
переклад: багатоголосий закадровий
кодек: 5.1
бітрейт: 448 кбіт/с
Доріжка перероблена п.Lan'ом - усунуто ефект зламаного піаніно.

Аудіо # 2:
мова: українська
переклад: двоголосий закадровий - Студія 1+1
кодек: 2.0
бітрейт: 192 кбіт/с

Аудіо # 3:
мова: англійська
переклад: оригінал
кодек: 5.1
бітрейт: 384 кб/с

Субтитри:
мова: англійська
тип: програмні (м'які)
формат: *.srt

Збережено оригінальні розділи, як на Blu-ray
MediaInfo
Код:
General
Unique ID                   : 216722842474742572404547968707885000365 (0xA30B4D1B25AAE29FB40645F542D3E6AD)
Complete name               : Collateral Damage (2002) [2xUkr,Eng sub.Eng] 1080p [Hurtom].mkv
Format                      : Matroska
Format version              : Version 4 / Version 2
File size                   : 7.85 GiB
Duration                    : 1h 48mn
Overall bit rate            : 10.3 Mbps
Movie name                  : Відшкодування збитків / Супутні жертви / Collateral Damage (2002) [2xUkr,Eng sub.Eng] 1080p [Hurtom-igor911]
Encoded date                : UTC 2015-11-04 14:57:55
Writing application         : mkvmerge v8.5.1 ('Where you lead I will follow') 64bit
Writing library             : libebml v1.3.3 + libmatroska v1.4.4
Attachements                : cover.jpg
DURATION                    : 01:48:47.904000000
NUMBER_OF_FRAMES            : 203997
NUMBER_OF_BYTES             : 156669696
_STATISTICS_WRITING_APP     : mkvmerge v8.5.1 ('Where you lead I will follow') 64bit
_STATISTICS_WRITING_DATE_UT : 2015-11-04 14:57:55
_STATISTICS_TAGS            : BPS DURATION NUMBER_OF_FRAMES NUMBER_OF_BYTES

Video
ID                          : 1
Format                      : AVC
Format/Info                 : Advanced Video Codec
Format profile              : [email protected]
Format settings, CABAC      : Yes
Format settings, ReFrames   : 5 frames
Codec ID                    : V_MPEG4/ISO/AVC
Duration                    : 1h 48mn
Bit rate                    : 9 310 Kbps
Width                       : 1 920 pixels
Height                      : 1 080 pixels
Display aspect ratio        : 16:9
Frame rate mode             : Constant
Frame rate                  : 23.976 fps
Color space                 : YUV
Chroma subsampling          : 4:2:0
Bit depth                   : 8 bits
Scan type                   : Progressive
Bits/(Pixel*Frame)          : 0.187
Stream size                 : 6.92 GiB (88%)
Title                       : Відшкодування збитків / Супутні жертви / Collateral Damage / Возмещение ущерба (2002) [Freeisland-taty75]
Writing library             : core 130 r2273 b3065e6
Encoding settings           : cabac=1 / ref=5 / deblock=1:-1:-1 / analyse=0x3:0x133 / me=umh / subme=10 / psy=1 / psy_rd=1.00:0.00 / mixed_ref=1 / me_range=32 / chroma_me=1 / trellis=2 / 8x8dct=1 / cqm=0 / deadzone=21,11 / fast_pskip=0 / chroma_qp_offset=-2 / threads=6 / lookahead_threads=1 / sliced_threads=0 / nr=0 / decimate=1 / interlaced=0 / bluray_compat=0 / constrained_intra=0 / bframes=10 / b_pyramid=2 / b_adapt=2 / b_bias=30 / direct=1 / weightb=1 / open_gop=0 / weightp=2 / keyint=240 / keyint_min=24 / scenecut=40 / intra_refresh=0 / rc=2pass / mbtree=0 / bitrate=9310 / ratetol=2.0 / qcomp=1.00 / qpmin=0 / qpmax=51 / qpstep=4 / cplxblur=20.0 / qblur=0.5 / ip_ratio=1.40 / pb_ratio=1.30 / aq=1:1.00
Language                    : English
Default                     : Yes
Forced                      : No
Color range                 : Limited
Color primaries             : BT.709
Transfer characteristics    : BT.709
Matrix coefficients         : BT.709
DURATION                    : 01:48:48.397000000
NUMBER_OF_FRAMES            : 156525
NUMBER_OF_BYTES             : 7589858585
_STATISTICS_WRITING_APP     : mkvmerge v8.5.1 ('Where you lead I will follow') 64bit
_STATISTICS_WRITING_DATE_UT : 2015-11-04 14:57:55
_STATISTICS_TAGS            : BPS DURATION NUMBER_OF_FRAMES NUMBER_OF_BYTES

Audio #1
ID                          : 2
Format                      : AC-3
Format/Info                 : Audio Coding 3
Mode extension              : CM (complete main)
Format settings, Endianness : Big
Codec ID                    : A_AC3
Duration                    : 1h 48mn
Bit rate mode               : Constant
Bit rate                    : 448 Kbps
Channel(s)                  : 6 channels
Channel positions           : Front: L C R, Side: L R, LFE
Sampling rate               : 48.0 KHz
Compression mode            : Lossy
Stream size                 : 349 MiB (4%)
Title                       : MVO [TB+, ICTV] 5.1 448 kbps [Hurtom-Lan]
Language                    : Ukrainian
Default                     : Yes
Forced                      : No

Audio #2
ID                          : 3
Format                      : AC-3
Format/Info                 : Audio Coding 3
Mode extension              : CM (complete main)
Format settings, Endianness : Big
Codec ID                    : A_AC3
Duration                    : 1h 48mn
Bit rate mode               : Constant
Bit rate                    : 192 Kbps
Channel(s)                  : 2 channels
Channel positions           : Front: L R
Sampling rate               : 48.0 KHz
Compression mode            : Lossy
Stream size                 : 149 MiB (2%)
Title                       : DVO [1+1] 2.0 192 kbps [Hurtom-NemoInFire]
Language                    : Ukrainian
Default                     : No
Forced                      : No

Audio #3
ID                          : 4
Format                      : AC-3
Format/Info                 : Audio Coding 3
Mode extension              : CM (complete main)
Format settings, Endianness : Big
Codec ID                    : A_AC3
Duration                    : 1h 48mn
Bit rate mode               : Constant
Bit rate                    : 384 Kbps
Channel(s)                  : 6 channels
Channel positions           : Front: L C R, Side: L R, LFE
Sampling rate               : 48.0 KHz
Compression mode            : Lossy
Delay relative to video     : 13ms
Stream size                 : 299 MiB (4%)
Title                       : Original 5.1 384 kbps
Language                    : English
Default                     : No
Forced                      : No

Text
ID                          : 5
Format                      : UTF-8
Codec ID                    : S_TEXT/UTF8
Codec ID/Info               : UTF-8 Plain Text
Title                       : Eng full
Language                    : English
Default                     : No
Forced                      : No

Menu
00:00:00.000                : en:00:00:00.000
00:03:22.160                : en:00:03:22.160
00:04:52.291                : en:00:04:52.291
00:08:11.949                : en:00:08:11.949
00:12:53.355                : en:00:12:53.355
00:17:01.645                : en:00:17:01.645
00:20:37.027                : en:00:20:37.027
00:24:50.447                : en:00:24:50.447
00:27:48.917                : en:00:27:48.917
00:31:27.385                : en:00:31:27.385
00:34:51.255                : en:00:34:51.255
00:37:33.459                : en:00:37:33.459
00:40:51.073                : en:00:40:51.073
00:45:08.914                : en:00:45:08.914
00:48:48.300                : en:00:48:48.300
00:52:54.629                : en:00:52:54.629
00:56:56.663                : en:00:56:56.663
00:59:57.552                : en:00:59:57.552
01:02:58.733                : en:01:02:58.733
01:04:40.876                : en:01:04:40.876
01:08:43.035                : en:01:08:43.035
01:13:19.311                : en:01:13:19.311
01:17:04.036                : en:01:17:04.036
01:19:38.440                : en:01:19:38.440
01:23:31.673                : en:01:23:31.673
01:27:21.027                : en:01:27:21.027
01:31:47.460                : en:01:31:47.460
01:34:00.593                : en:01:34:00.593
01:36:25.946                : en:01:36:25.946
01:40:43.620                : en:01:40:43.620
01:43:06.555                : en:01:43:06.555
01:44:34.059                : en:01:44:34.059






Джерела та подяки: &
ріп відео, оригінальні звук та субтитри - taty75 (Freeisland); українська доріжка - 1) robotron005, перероблена Lan'ом (усунуто ефект зламаного піаніно), 2) NemoInFire - зведення, boltendahl - надання запису з VHS; українізований постер - hellforces; фільмографія - robotron005 (всі - Гуртом).

Особиста оцінка: 7 - непоганий фільм для поціновувачів творчості "залізного" Арні.


УВАГА!
04.11.2015 реліз оновлено - додано доріжку від 1+1






ЗАЛИШАЙТЕСЬ ЯКОМОГА ДОВШЕ НА РОЗДАЧІ!

СКАЧАВ САМ - ДАЙ СКАЧАТИ ІНШИМ


Срібний реліз (на рейтинг впливає 50% завантаженого)
 Трекер:    Зареєстрований   

Завантажити / скачати фільм українською



відео для новачків



 Зареєстрований:   2015-11-04 17:39
 Розмір:   7.85 GB 
 Оцінка фільму:   5.1/10 (Голосів: 19)
   
Anonymous 







2015-11-04 17:43  
Реліз оновлено - додано доріжку від 1+1. Через низьку якість запису поставив її другою.
oldfart1 
Новенький


З нами з: 04.01.14
Востаннє: 20.11.16
Повідомлень: 5

2016-11-19 18:56  
Я так розумію, що роздачі не буде ?
Anonymous 







2016-11-19 19:06  
igor911 написано:
Роздають: [ 2 ]

я на роздачі цілодобово. Роздачі може не бути, якщо у тебе закритий порт для вхідних з'єднань.

oldfart1 
Новенький


З нами з: 04.01.14
Востаннє: 20.11.16
Повідомлень: 5

2016-11-20 13:17  
ДЯКУЮ
нарешті докачав

Ваш часовий пояс: GMT + 2 Години

Нова тема   Відповісти