Завантажити та скачати торренти українською


Термінатор 2: Судний день / Terminator 2: Judgment Day (1991) Remux 1080p Ukr/Eng | Sub Eng

Нові коментарі

Нова тема   Відповісти
Автор Повідомлення
UpTown 
Частий відвідувач


З нами з: 27.01.11
Востаннє: 26.12.13
Повідомлень: 27

2013-04-28 13:42  
Термінатор 2: Судний день / Terminator 2: Judgment Day (1991) [SkyNet Edition] Remux 1080p Ukr/Eng | Sub Eng



Жанр: фантастика, бойовик
Країна: США



Кіностудія / кінокомпанія: TriStar
Режисер: Джеймс Кемерон (James Cameron)
Актори: Арнольд Шварценеггер, Роберт Патрік, Лінда Гамільтон, Джо Мортон, Едвард Ферлонг, Ерл Боен, С. Епата Меркерсон, Денні Куксі, Кастуло Герр

Сюжет:

Війна роботів і людей продовжується. Здавалося, що людство приречене на повне знищення. Але завдяки своєму лідерові Джону Коннору у опору з'являється шанс перемогти. Не маючи можливості вбити Джона в реальному часі, роботи відправляють в минуле свою найдосконалішу розробку – термінатора-вбивцю з рідкого металу, здатного набувати будь-якого образу.
Тепер, щоб перемогти в майбутньому, юному Джонові потрібно вижити в сьогоденні. Його шанси істотно підвищуються, коли на допомогу приходить перепрограмований опором термінатор попереднього покоління. Обидва роботи вступають в смертельний бій, від результату якого залежить доля людства.


Тривалість: 02:36:08
Якість: Remux
Відео:
кодек: VC-1
розмір кадру: 1920 х 1080
бітрейт: 21,5 Мб/с

Аудіо # 1:
мова: українська
переклад: багатоголосий закадровий
кодек:
бітрейт: 384 кб/с
джерело: toloka.to
Переклад і озвучення виконано:


Аудіо # 2:
мова: англійська
переклад: оригінал
кодек:
бітрейт: 1510 кб/с

Аудіо # 3:
мова: англійська
переклад: оригінал
кодек:
бітрейт: 640 кб/с

Аудіо # 4:
мова: англійська
переклад: Коментарі розробників
кодек:
бітрейт: 224 кб/с

Аудіо # 5:
мова: англійська
переклад: Коментарі Джеймса Кемерона
кодек:
бітрейт: 224 кб/с

Аудіо # 6:
мова: англійська
переклад: Пояснення до фільму
кодек:
бітрейт: 640 кб/с

Субтитри # 1:
мова: англійська
тип: програмні (м'які)
формат: SRT

Субтитри # 2:
мова: англійська
тип: Пререндерні
формат: PGS

Субтитри # 3:
мова: англійська
тип: Пререндерні з позиціюванням
формат: PGS

Субтитри # 4:
мова: англійська Коментарі розробників з фото
тип: Пререндерні
формат: PGS

Субтитри # 5:
мова: англійська Коментарі Джеймса Кемерона
тип: Пререндерні
формат: PGS
MediaInfo

General
Unique ID : 250432444280463914466940857520395825153 (0xBC6788CB119A1CDF822A159489BAB001)
Complete name : D:\Documents\...\Terminator 2 Judgment Day [SkyNet Edition] (1991)\Terminator 2 Judgment Day (1991) Remux 1080p.mkv
Format : Matroska
Format version : Version 2
File size : 27.9 GiB
Duration : 2h 36mn
Overall bit rate mode : Variable
Overall bit rate : 25.6 Mbps
Encoded date : UTC 2013-04-28 10:52:29
Writing application : mkvmerge v5.2.1 ('A Far Off Place') built on Jan 7 2012 21:56:27
Writing library : libebml v1.2.3 + libmatroska v1.3.0

Video
ID : 1
Format : VC-1
Format profile : [email protected]
Codec ID : V_MS/VFW/FOURCC / WVC1
Codec ID/Hint : Microsoft
Duration : 2h 36mn
Bit rate : 21.4 Mbps
Width : 1 920 pixels
Height : 1 080 pixels
Display aspect ratio : 16:9
Frame rate mode : Constant
Frame rate : 23.976 fps
Chroma subsampling : 4:2:0
Bit depth : 8 bits
Scan type : Progressive
Compression mode : Lossy
Bits/(Pixel*Frame) : 0.431
Stream size : 23.3 GiB (84%)
Default : Yes
Forced : No

Audio #1
ID : 2
Format : AC-3
Format/Info : Audio Coding 3
Mode extension : CM (complete main)
Format settings, Endianness : Big
Codec ID : A_AC3
Duration : 2h 36mn
Bit rate mode : Constant
Bit rate : 384 Kbps
Channel(s) : 6 channels
Channel positions : Front: L C R, Side: L R, LFE
Sampling rate : 48.0 KHz
Bit depth : 16 bits
Compression mode : Lossy
Stream size : 429 MiB (2%)
Title : Українська (1+1)
Language : Ukrainian
Default : Yes
Forced : Yes

Audio #2
ID : 3
Format :
Format/Info : Digital Theater Systems
Format profile : MA / Core
Codec ID : A_DTS
Duration : 2h 36mn
Bit rate mode : Variable
Bit rate : 1 561 Kbps / 1 510 Kbps
Channel(s) : 6 channels
Channel positions : Front: L C R, Side: L R, LFE
Sampling rate : 48.0 KHz
Bit depth : 24 bits
Compression mode : Lossless / Lossy
Delay relative to video : 42ms
Title : Англійська -HD 5.1
Language : English
Default : No
Forced : No

Audio #3
ID : 4
Format : AC-3
Format/Info : Audio Coding 3
Mode extension : CM (complete main)
Format settings, Endianness : Big
Codec ID : A_AC3
Duration : 2h 36mn
Bit rate mode : Constant
Bit rate : 640 Kbps
Channel(s) : 6 channels
Channel positions : Front: L C R, Side: L R, LFE
Sampling rate : 48.0 KHz
Bit depth : 16 bits
Compression mode : Lossy
Delay relative to video : 42ms
Stream size : 715 MiB (3%)
Title : Англійська 5.1
Language : English
Default : No
Forced : No

Audio #4
ID : 5
Format : AC-3
Format/Info : Audio Coding 3
Mode extension : CM (complete main)
Format settings, Endianness : Big
Codec ID : A_AC3
Duration : 2h 36mn
Bit rate mode : Constant
Bit rate : 224 Kbps
Channel(s) : 2 channels
Channel positions : Front: L R
Sampling rate : 48.0 KHz
Bit depth : 16 bits
Compression mode : Lossy
Delay relative to video : 42ms
Stream size : 250 MiB (1%)
Title : Коментарі розробників
Language : English
Default : No
Forced : No

Audio #5
ID : 6
Format : AC-3
Format/Info : Audio Coding 3
Format profile : Dolby Digital
Mode extension : CM (complete main)
Format settings, Endianness : Big
Codec ID : A_AC3
Duration : 2h 36mn
Bit rate mode : Constant
Bit rate : 224 Kbps
Channel(s) : 2 channels
Channel positions : Front: L R
Sampling rate : 48.0 KHz
Bit depth : 16 bits
Compression mode : Lossy
Delay relative to video : 42ms
Stream size : 250 MiB (1%)
Title : Коментарі Джеймса Кемерона
Language : English
Default : No
Forced : No

Audio #6
ID : 7
Format : AC-3
Format/Info : Audio Coding 3
Mode extension : CM (complete main)
Format settings, Endianness : Big
Codec ID : A_AC3
Duration : 2h 36mn
Bit rate mode : Constant
Bit rate : 640 Kbps
Channel(s) : 6 channels
Channel positions : Front: L C R, Side: L R, LFE
Sampling rate : 48.0 KHz
Bit depth : 16 bits
Compression mode : Lossy
Delay relative to video : 42ms
Stream size : 715 MiB (3%)
Title : Пояснення до фільму
Language : English
Default : No
Forced : No

Text #1
ID : 8
Format : UTF-8
Codec ID : S_TEXT/UTF8
Codec ID/Info : UTF-8 Plain Text
Title : Англійська SRT
Language : English
Default : No
Forced : No

Text #2
ID : 9
Format : PGS
Muxing mode : zlib
Codec ID : S_HDMV/PGS
Codec ID/Info : The same subtitle format used on BDs/HD-DVDs
Title : Англійська PGS
Language : English
Default : No
Forced : No

Text #3
ID : 10
Format : PGS
Muxing mode : zlib
Codec ID : S_HDMV/PGS
Codec ID/Info : The same subtitle format used on BDs/HD-DVDs
Title : Англійська з позиціюванням
Language : English
Default : No
Forced : No

Text #4
ID : 11
Format : PGS
Muxing mode : zlib
Codec ID : S_HDMV/PGS
Codec ID/Info : The same subtitle format used on BDs/HD-DVDs
Title : Коментарі розробників з фото
Language : English
Default : No
Forced : No

Text #5
ID : 12
Format : PGS
Muxing mode : zlib
Codec ID : S_HDMV/PGS
Codec ID/Info : The same subtitle format used on BDs/HD-DVDs
Title : Коментарі Джеймса Кемерона
Language : English
Default : No
Forced : No

Скріншоти:








Особиста оцінка: 10 - без зайвих вагань рекомендую всім!


Золотий реліз (завантажене не впливає на рейтинг)
 Трекер:    Зареєстрований   

Завантажити / скачати фільм українською



відео для новачків



 Зареєстрований:   2013-04-28 13:42
 Розмір:   27.9 GB 
 Оцінка фільму:   9.9/10 (Голосів: 19)
   
ratbol 
Модератор HD


З нами з: 03.02.09
Востаннє: 01.12.16
Повідомлень: 1088

2013-04-28 16:06  
UpTown написано:
[SkyNet Edition]

[Extended Special Edition]
UpTown написано:

кодек: -HD
бітрейт: 1561 кб/с

Додайте звіт BDInfo.
Він правильно вирахує бітрейт відео і ориг. звуку.

UpTown 
Частий відвідувач


З нами з: 27.01.11
Востаннє: 26.12.13
Повідомлень: 27

2013-04-28 17:21  
[Extended Special Edition]
Якщо не наполягаєте, я залишу саме як Skynet Edition бо так він власне зветься:
http://www.amazon.com/Terminator-Judgment-Skynet-Edition-Blu-ray/dp/B001RIY4WE/ref=sr_1_2?ie=UTF8&qid=1367162259&sr=8-2&keywords=terminator+2

Додайте звіт BDInfo. Ця програма працює лише з образами блу рей, якого в мене немаєHappy Але дані все ж виправив.

ratbol 
Модератор HD


З нами з: 03.02.09
Востаннє: 01.12.16
Повідомлень: 1088

2013-04-28 17:46  
UpTown написано:
Ця програма працює лише з образами блу рей

Справді, перепрошую.

vick175 
Новенький


З нами з: 30.06.12
Востаннє: 03.09.16
Повідомлень: 1

2014-09-03 21:21  
Вже три доби не можу скачати...Будь ласка...
jonnyzero 
Свій


З нами з: 04.01.09
Востаннє: 04.12.16
Повідомлень: 55

2015-04-27 11:43  
Дуже прошу хтось станьте на роздачу. Дуже дякую.
Ваш часовий пояс: GMT + 2 Години

Нова тема   Відповісти