Завантажити та скачати торренти українською


VA - Весілля в Телепеньках (2000) [FLAC] | Folk

Нові коментарі

Нова тема   Відповісти
Останній раз роздавалося andron031977 (2016-10-25)
Автор Повідомлення
inki 
VIP


З нами з: 24.10.09
Востаннє: 13.10.16
Повідомлень: 380

2013-04-27 22:11  
VA - Весілля в Телепеньках (2000) [FLAC] | Folk

VA - Весілля в Телепеньках (2000) [FLAC] | Folk


Стиль: Folk
Країна: Україна
Видавець: студія МПП фірма "МЕД" & АПРІС

Пісні:
    01. Ж.Неборячок - Гарбузи
    02. М.Березутський - Теща
    03. М.Березутський - Ясени
    04. М.Березутський - Свині
    05. М.Березутський - Ой, не було б лиха
    06. Ж.Неборячок - Таємниця
    07. М.Березутський - Батькам
    08. М.Березутський - Весілля в Телепеньках
    09. М.Березутський - Андресса
    10. М.Березутський - Для сільського чоловіка
    11. М.Березутський - Гоп-дрига
    12. Ж.Неборячок - Маріка
    13. М.Березутський - Невістка
    14. М.Березутський - Село і люди

    музика і слова - М.Мазур

Тривалість: 00:50:56
Мова: українська
Аудіо-кодек: FLAC
Бітрейт: 1080 кб/с
Джерело: rsfsr7
Звіт:
log
Exact Audio Copy V1.0 beta 3 from 29. August 2011

Отчёт EAC об извлечении, выполненном 22. февраля 2013, 10:45

VA / Весілля в Телепеньках

Дисковод: PIONEER DVD-RW DVR-212D Adapter: 1 ID: 1

Режим чтения : Достоверность
Использование точного потока : Да
Отключение кэша аудио : Да
Использование указателей C2 : Нет

Коррекция смещения при чтении : 0
Способность читать области Lead-in и Lead-out : Нет
Заполнение пропущенных сэмплов тишиной : Да
Удаление блоков с тишиной в начале и конце : Нет
При вычислениях CRC использовались нулевые сэмплы : Да
Нормализовать до : 98 %
Интерфейс : Встроенный Win32-интерфейс для Win NT/2000

Выходной формат : Пользовательский кодировщик
Выбранный битрейт : 896 kBit/s
Качество : Высокий
Добавление ID3-тега : Нет
Утилита сжатия : C:\Program Files\EACPortable\App\EAC\FLAC\flac.exe
Дополнительные параметры : -6 -V -T "ARTIST=%artist%" -T "TITLE=%title%" -T "ALBUM=%albumtitle%" -T "DATE=%year%" -T "TRACKNUMBER=%tracknr%" -T "GENRE=%genre%" -T "COMMENT=%comment%" %hascover%--picture="%coverfile%"%hascover% %source% -o %dest%

TOC извлечённого CD

Трек | Старт | Длительность | Начальный сектор | Конечный сектор
---------------------------------------------------------------------
1 | 0:00.00 | 3:22.43 | 0 | 15192
2 | 3:22.43 | 4:39.41 | 15193 | 36158
3 | 8:02.09 | 3:57.27 | 36159 | 53960
4 | 11:59.36 | 2:52.69 | 53961 | 66929
5 | 14:52.30 | 3:17.23 | 66930 | 81727
6 | 18:09.53 | 2:42.25 | 81728 | 93902
7 | 20:52.03 | 3:34.05 | 93903 | 109957
8 | 24:26.08 | 4:10.74 | 109958 | 128781
9 | 28:37.07 | 3:31.26 | 128782 | 144632
10 | 32:08.33 | 3:22.06 | 144633 | 159788
11 | 35:30.39 | 4:26.47 | 159789 | 179785
12 | 39:57.11 | 2:57.05 | 179786 | 193065
13 | 42:54.16 | 3:34.29 | 193066 | 209144
14 | 46:28.45 | 4:27.34 | 209145 | 229203

Характеристики диапазона извлечения и сообщения об ошибках

Выбранный диапазон

Имя файла C:\VA - Весілля в Телепеньках.wav
спектр


Срібний реліз (на рейтинг впливає 50% завантаженого)
 Трекер:    Зареєстрований   

Завантажити / скачати українську музику



відео для новачків



 Зареєстрований:   2013-04-27 22:11
 Розмір:   394 MB 
 Оцінка музики:   10/10 (Голосів: 1)
   
ssTAss 
Модератор музики


З нами з: 05.07.08
Востаннє: 08.12.16
Повідомлень: 10947

2013-04-27 23:05  
додайте вміст лог-файлу і звіт аудіочекера
Ваш часовий пояс: GMT + 2 Години

Нова тема   Відповісти