Завантажити та скачати торренти українською


VA - Весілля з МЕДом 3 (2002) [FLAC] | Folk

Нові коментарі

Нова тема   Відповісти
Останній раз роздавалося Osobear123 (2016-10-24)
Автор Повідомлення
inki 
VIP


З нами з: 24.10.09
Востаннє: 13.10.16
Повідомлень: 380

2013-04-27 21:45  
VA - Весілля з МЕДом 3 (2002) [FLAC] | Folk

VA - Весілля з МЕДом 3 (2002) [FLAC] | Folk


Стиль: Folk
Країна: Україна
Видавець: студія МПП фірма "МЕД" & АПРІС

Пісні:
    01. М.Березутський - Не гадайте, люди
    (музика і слова - М.Березутський, В.Березутська)
    02. М.Березутський - Сам п'ю
    (музика і слова - М.Березутський)
    03. Т.Бученко - Черемшина
    (музика і слова - М.Березутський)
    04. М.Березутський - У клубі танці
    (музика і слова - М.Березутський)
    05. Т.Бученко - Чом я не щаслива
    (музика і слова - М.Березутський, народні)
    06. М.Березутський - Вегетаріанець
    (музика і слова - М.Березутський, В.Березутська)
    07. М.Березутський - Зозуля
    (музика і слова - М.Березутський, народні)
    08. М.Березутський & Т.Бученко - За городом качки крячуть
    (музика і слова - М.Березутський, народні)
    09. М.Березутський - Баба Дуся
    (музика і слова - М.Березутський)
    10. М.Березутський - Море
    (музика і слова - М.Березутський, В.Березутська)
    11. М.Березутський - Коровайниці
    (музика і слова - М.Березутський, В.Березутська)
    12. М.Березутський - Чому розходяться дороги
    (музика і слова - М.Березутський, В.Трофімчук)

Тривалість: 00:40:24
Мова: українська
Аудіо-кодек: FLAC
Бітрейт: 1054 кб/с
Джерело: rsfsr7
Звіт:
log
Exact Audio Copy V1.0 beta 3 from 29. August 2011

Отчёт EAC об извлечении, выполненном 22. февраля 2013, 12:49

VA / Весілля з Медом 3

Дисковод: PIONEER DVD-RW DVR-212D Adapter: 1 ID: 1

Режим чтения : Достоверность
Использование точного потока : Да
Отключение кэша аудио : Да
Использование указателей C2 : Нет

Коррекция смещения при чтении : 0
Способность читать области Lead-in и Lead-out : Нет
Заполнение пропущенных сэмплов тишиной : Да
Удаление блоков с тишиной в начале и конце : Нет
При вычислениях CRC использовались нулевые сэмплы : Да
Нормализовать до : 98 %
Интерфейс : Встроенный Win32-интерфейс для Win NT/2000

Выходной формат : Пользовательский кодировщик
Выбранный битрейт : 896 kBit/s
Качество : Высокий
Добавление ID3-тега : Нет
Утилита сжатия : C:\Program Files\EACPortable\App\EAC\FLAC\flac.exe
Дополнительные параметры : -6 -V -T "ARTIST=%artist%" -T "TITLE=%title%" -T "ALBUM=%albumtitle%" -T "DATE=%year%" -T "TRACKNUMBER=%tracknr%" -T "GENRE=%genre%" -T "COMMENT=%comment%" %hascover%--picture="%coverfile%"%hascover% %source% -o %dest%

TOC извлечённого CD

Трек | Старт | Длительность | Начальный сектор | Конечный сектор
---------------------------------------------------------------------
1 | 0:00.00 | 3:22.37 | 0 | 15186
2 | 3:22.37 | 3:40.23 | 15187 | 31709
3 | 7:02.60 | 2:52.09 | 31710 | 44618
4 | 9:54.69 | 3:32.00 | 44619 | 60518
5 | 13:26.69 | 3:25.43 | 60519 | 75936
6 | 16:52.37 | 3:14.21 | 75937 | 90507
7 | 20:06.58 | 2:37.62 | 90508 | 102344
8 | 22:44.45 | 3:04.26 | 102345 | 116170
9 | 25:48.71 | 3:15.33 | 116171 | 130828
10 | 29:04.29 | 3:21.57 | 130829 | 145960
11 | 32:26.11 | 4:21.72 | 145961 | 165607
12 | 36:48.08 | 3:36.30 | 165608 | 181837

Характеристики диапазона извлечения и сообщения об ошибках

Выбранный диапазон

Имя файла C:\VA - Весілля з Медом 3.wav

Пиковый уровень 93.2 %
Скорость извлечения 5.7 X
Качество диапазона 100.0 %
CRC копии C34703DF
Копирование... OK

Ошибок не произошло

Конец отчёта
спектр


Срібний реліз (на рейтинг впливає 50% завантаженого)
 Трекер:    Зареєстрований   

Завантажити / скачати українську музику



відео для новачків



 Зареєстрований:   2013-04-27 21:54
 Розмір:   305 MB 
 Оцінка музики:   10/10 (Голосів: 3)
   
ssTAss 
Модератор музики


З нами з: 05.07.08
Востаннє: 07.12.16
Повідомлень: 10947

2013-04-27 22:59  
inki написано:
VA - Весілля з Медом 3 (2002)

забули написати стиль в назві
inki написано:
(музика і слова - М.Березутський, народные)

написати українською
і де рядок "Джерело"?
також було б добре, якби додали вміст лог-файлу під спойлер та звіт аудіочекера (чи подібного)

Ваш часовий пояс: GMT + 2 Години

Нова тема   Відповісти