Завантажити та скачати торренти українською


Панічна втеча (Біжи не озираючись/Тікаючи з остраху) / Running Scared (2006) 1080p Ukr/Eng |Sub Eng

Нові коментарі

Нова тема   Відповісти
Автор Повідомлення
Anonymous 







2013-04-27 20:56  
Панічна втеча (Біжи не озираючись/Тікаючи з остраху) / Running Scared (2006) 1080p Ukr/Eng |Sub Eng

Панічна втеча (Біжи не озираючись/Тікаючи з остраху) / Running Scared (2006) 1080p Ukr/Eng |Sub Eng
Альтернативний постер


Жанр: бойовик, трилер, драма, кримінал
Країна: Німеччина, США



Кіностудія / кінокомпанія: New Line Cinema, Media 8 Entertainment, True Grit Productions
Режисер: Вейн Крамер / Wayne Kramer
Актори: Пол Вокер / Paul Walker, Камерон Брайт / Cameron Bright, Вєра Фарміга / Vera Farmiga, Чезз Палмінтері / Chazz Palminteri, Карел Роден / Karel Roden, Джон Ноубл / John Noble, Іванна Мілічевич / Ivana Milicevic, Алекс Нойбергер / Alex Neuberger, Брюс Олтман / Bruce Altman, Елізабет Мітчелл / Elizabeth Mitchell, Джонні Месснер / Johnny Messner та інші

Сюжет:
Одного разу вночі мафія вбиває поліцейського. Зброя, якою скоєно злочин, потрапляє до рук двох десятирічних хлопчаків. Це сталося з вини батька одного з хлопців – Джої Газелле (Вокер), рядового одного з джерсійських мафіозних кланів. Тепер Джої змушений рятувати хлопців від мафії, а себе – від великих неприємностей, оскільки друг його сина (Брайт) випадково застрелив з пістолета свого вітчима, племінника боса російської банди.


рейтинг MPAA: R - особам до 17 років обов'язкова присутність батьків або дорослого опікуна
Вікова категорія: 18+

Тривалість: 02:01:34
Якість: 1080p
Відео:
кодек:
розмір кадру: 1920x816
бітрейт: 8370 кб/с

Аудіо # 1:
мова: українська
переклад: багатоголосий закадровий
кодек: 5.1
бітрейт: 448 кб/с
Інформація про озвучення:

Ролі озвучили: Пол Вокер — Михайло Кришталь, Микола Говор і один чи два невстановлених жіночих голоса.
Аудіо # 2:
мова: українська
переклад: багатоголосий закадровий
кодек: 2.0
бітрейт: 192 кб/с

Українські доріжки ідентичні за перекладом та озвученням і відрізняються лише технічними параметрами.

Аудіо # 3:
мова: англійська
переклад: оригінал
кодек: AC 5.1
бітрейт: 640 кб/с

Субтитри:
мова: англійська
тип: програмні (м'які)
формат: *.srt

Збережено оригінальні розділи, як на Blu-ray
MediaInfo &
[info]: frame I:1160 Avg QP:18.87 size:132453
[info]: frame P:46942 Avg QP:21.62 size: 63039
[info]: frame B:126799 Avg QP:23.98 size: 35549
--------------------------------------------------------------------
General
Unique ID : 216022802330732812268529810662026308707 (0xA2847A7651ED2EA193215DE2C07AEC63)
Complete name : Running.Scared.2006..1080p.Ukr.Eng.mkv
Format : Matroska
Format version : Version 4 / Version 2
File size : 8.19 GiB
Duration : 2h 1mn
Overall bit rate : 9 640 Kbps
Movie name : Біжи не озираючись / Панічна втеча / Running Scared / Беги без оглядки (2006)
Encoded date : UTC 2013-04-26 18:31:23
Writing application : mkvmerge v6.1.0 ('Old Devil') built on Mar 2 2013 14:32:37
Writing library : libebml v1.3.0 + libmatroska v1.4.0

Video
ID : 1
Format : AVC
Format/Info : Advanced Video Codec
Format profile : [email protected]
Format settings, CABAC : Yes
Format settings, ReFrames : 5 frames
Codec ID : V_MPEG4/ISO/AVC
Duration : 2h 1mn
Bit rate : 8 370 Kbps
Width : 1 920 pixels
Height : 816 pixels
Display aspect ratio : 2.35:1
Frame rate mode : Constant
Frame rate : 23.976 fps
Color space : YUV
Chroma subsampling : 4:2:0
Bit depth : 8 bits
Scan type : Progressive
Bits/(Pixel*Frame) : 0.223
Stream size : 6.94 GiB (85%)
Title : Біжи не озираючись / Running Scared / Беги без оглядки (2006), rip by WIDDER
Writing library : core 130 r2273 b3065e6
Encoding settings : cabac=1 / ref=5 / deblock=1:-3:-3 / analyse=0x3:0x133 / me=umh / subme=11 / psy=1 / psy_rd=1.00:0.00 / mixed_ref=1 / me_range=48 / chroma_me=1 / trellis=2 / 8x8dct=1 / cqm=0 / deadzone=21,11 / fast_pskip=0 / chroma_qp_offset=-2 / threads=12 / lookahead_threads=1 / sliced_threads=0 / nr=0 / decimate=1 / interlaced=0 / bluray_compat=0 / constrained_intra=0 / bframes=5 / b_pyramid=2 / b_adapt=2 / b_bias=0 / direct=3 / weightb=1 / open_gop=0 / weightp=2 / keyint=240 / keyint_min=23 / scenecut=40 / intra_refresh=0 / rc_lookahead=60 / rc=2pass / mbtree=0 / bitrate=8370 / ratetol=1.0 / qcomp=0.60 / qpmin=0 / qpmax=69 / qpstep=4 / cplxblur=20.0 / qblur=0.5 / vbv_maxrate=62500 / vbv_bufsize=78125 / nal_hrd=none / ip_ratio=1.40 / pb_ratio=1.30 / aq=2:0.80
Language : English
Default : Yes
Forced : No

Audio #1
ID : 2
Format : AC-3
Format/Info : Audio Coding 3
Mode extension : CM (complete main)
Format settings, Endianness : Big
Codec ID : A_AC3
Duration : 2h 1mn
Bit rate mode : Constant
Bit rate : 448 Kbps
Channel(s) : 6 channels
Channel positions : Front: L C R, Side: L R, LFE
Sampling rate : 48.0 KHz
Bit depth : 16 bits
Compression mode : Lossy
Stream size : 390 MiB (5%)
Title : MVO [TRK Ukrajina] 5.1 448 kbps [Hurtom-Lan, rkononenko]
Language : Ukrainian
Default : Yes
Forced : No

Audio #2
ID : 3
Format : AC-3
Format/Info : Audio Coding 3
Mode extension : CM (complete main)
Format settings, Endianness : Big
Codec ID : A_AC3
Duration : 2h 1mn
Bit rate mode : Constant
Bit rate : 192 Kbps
Channel(s) : 2 channels
Channel positions : Front: L R
Sampling rate : 48.0 KHz
Bit depth : 16 bits
Compression mode : Lossy
Stream size : 167 MiB (2%)
Title : MVO [TRK Ukrajina] 2.0 192 kbps [Hurtom-rkononenko]
Language : Ukrainian
Default : No
Forced : No

Audio #3
ID : 4
Format : AC-3
Format/Info : Audio Coding 3
Mode extension : CM (complete main)
Format settings, Endianness : Big
Codec ID : A_AC3
Duration : 2h 1mn
Bit rate mode : Constant
Bit rate : 640 Kbps
Channel(s) : 6 channels
Channel positions : Front: L C R, Side: L R, LFE
Sampling rate : 48.0 KHz
Bit depth : 16 bits
Compression mode : Lossy
Stream size : 557 MiB (7%)
Title : , 640 Kbps (6 ch) Original
Language : English
Default : No
Forced : No

Text
ID : 5
Format : UTF-8
Codec ID : S_TEXT/UTF8
Codec ID/Info : UTF-8 Plain Text
Title : Eng full
Language : English
Default : No
Forced : No

Menu
00:00:00.000 : en:Bad Deal
00:05:29.000 : en:A Simple Task
00:10:00.000 : en:Secret Stash
00:12:48.000 : en:"the Duke Lives"
00:19:49.000 : en:Domestic Dispute
00:25:07.000 : en:Damage Control
00:30:56.000 : en:The Dark Side
00:33:58.000 : en:Bad Pimp
00:37:37.000 : en:Let's Make a Deal
00:44:54.000 : en:Hide and Seek
00:52:00.000 : en:Thirsty for Truth
00:59:07.505 : en:Father & Son
01:03:09.206 : en:The Play Room
01:11:36.540 : en:Maternal Instincts
01:19:10.140 : en:Pep Talk
01:26:11.000 : en:"Nobody Knows Nobody"
01:30:45.175 : en:Showdown on Ice
01:43:23.009 : en:Going Home
01:46:11.509 : en:Pimpin' Ain't Easy
01:49:25.009 : en:Family Reunion
01:54:07.000 : en:End Credits


Джерела та подяки: ріп відео, оригінальна доріжка - WIDDER, українська доріжка 2.0 (залишив з релізу WIDDER) - rkononenko (запис з ТБ та зведення), українська доріжка 5.1 - Lan (з доріжки 2.0), постер - UaBboyAtom (всі - Гуртом).


 Трекер:    Зареєстрований   

Завантажити / скачати фільм українською



відео для новачків



 Зареєстрований:   2013-04-27 20:56
 Розмір:   8.19 GB 
 Оцінка фільму:   6.4/10 (Голосів: 26)
   
Anonymous 







2013-04-28 14:37  
ЗАЛИШАЙТЕСЬ ЯКОМОГА ДОВШЕ НА РОЗДАЧІ, НЕ ОБМЕЖУЙТЕ ШВИДКІСТЬ "ВІДДАЧІ"!
СКАЧАВ САМ - ДАЙ СКАЧАТИ ІНШИМ

skuline 
Свій


З нами з: 17.12.11
Востаннє: 04.12.16
Повідомлень: 114

2013-05-13 16:37  
Класний бойовик-детектив
Den Niko 
Новенький


З нами з: 24.03.13
Востаннє: 27.07.13
Повідомлень: 1

2013-06-16 22:41  
Відпадне кіно))) навіть крутіше "Міцних горішків"!!))
Віктор 
Відео Гуртом - субтитрування
Відео Гуртом - субтитрування


З нами з: 09.01.10
Востаннє: 05.12.16
Повідомлень: 8663

2014-10-27 12:25  
Є ще запис з нтн http://toloka.to/t60136?sid=383ea290a2fb30a8914ba5fd6e2dc744#680732 може інший переклад.
Virake 
Localize Team
Localize Team


З нами з: 07.07.09
Востаннє: 06.12.16
Повідомлень: 4060

2015-04-16 20:57  
шикарний фільм! шкода, що звук низької якості...
boroznaya 
VIP


З нами з: 02.11.12
Востаннє: 06.12.16
Повідомлень: 1872

2015-08-19 20:57  
Фільм нереально крутий, Пол Вокер - шикарний актор! Вічна пам'ять невмирущому кумиру!

P.S. А навіщо ріп зробили з HDDVD, блюрик вже давно є, чого з нього не кодували?

Anonymous 







2015-08-19 21:05  
boroznaya написано:
А навіщо ріп зробили з HDDVD, блюрик вже давно є, чого з нього не кодували?

Залишив це для вас, можете закодувати і викласти реліз, щоб хоч трохи підняти свій ганебний рейтинг 0.02

Додано через 1 хвилину:

жартую.

Додано через 1 хвилину 56 секунд:

HDDVD та Blu-ray - близнюки по якості. І не факт, що на блюрику якість краща. Можете зробити і викласти порівняння.

Ваш часовий пояс: GMT + 2 Години

Нова тема   Відповісти