Завантажити та скачати торренти українською


Страх / Fear (1996) 1080p Ukr/Eng | Sub Eng

Нові коментарі

Нова тема   Відповісти
Автор Повідомлення
Anonymous 







2013-04-26 23:03  
Страх / Fear (1996) 1080p Ukr/Eng | Sub Eng

Страх / Fear (1996) 1080p Ukr/Eng | Sub Eng


Жанр: драма, трилер
Країна: США



Кіностудія / кінокомпанія: Imagine Entertainment, Universal Pictures
Режисер: Джеймс Фоулі / James Foley
Актори: Марк Волберґ / Mark Wahlberg (David McCall), Різ Візерспун / Reese Witherspoon (Nicole Walker), Вільям Петерсен / William Petersen (Steve Walker), Емі Бреннеман / Amy Brenneman (Laura Walker), Алісса Мілано / Alyssa Milano (Margo Masse), Трейсі Фрейм / Tracy Fraim (Logan), Гарі Райлі / Gary Riley (Hacker)


Сюжет:
Батько сімейства збирався провести уїк-енд з родичами, але в останню хвилину термінова справа завадила його планам. Образившись на нього, 16-річна дочка втекла на дискотеку, де познайомилася з милим, як їй здалося, хлопцем. Далі події розвивалися як в кошмарному сні: закоханість наївної дівчинки і її перший сексуальний досвід стикаються з жорстокістю і кровожерливою мстивістю. Тиха сім'я, яка живе в любові та злагоді, вимушена битися не на життя, а на смерть з озвірілою бандою молодиків, які напали на їхній будинок заради помсти.


Премія MTV Movie Awards у 1997 році "Краща пісня в кінофільмі" — "Machinehead" (Bush)
Саундтрек:

Jessica - The Allman Brothers.
Green Mind - Dink. Звучить у нічному клубі, де Ніколь вперше заговорила з Девідом.
Comedown - Bush. Супроводжує добірку епізодів побачень Ніколь і Девіда, після того, як Ніколь вперше розповіла батькові про свого нового хлопця.
Wild Horses - The Sundays. Звучить, коли Девід і Ніколь проводять час в парку атракціонів.
Machine Head - Bush - премія каналу «MTV» у 1997 році "Краща пісня"
Something Always Wrong - Toad the Wet Sprocket
Animal - Prick. Звучить, коли Ніколь несподівано навідується до будинку Девіда і стає очевидицею його зради.
The Illist - Марк Волберг. Звучить, коли написавши Ніколь записку з вибаченнями після першої сварки, Девід безуспішно чекає її в барі "У Ларго".
Irie Vibe - One Love. Звучить в барі "У Ларго", коли Ніколь після занять зайшла з друзями і вперше побачила Девіда, зайнятого грою на більярді.
Цікаві факти:

• Роль Девіда Макколла в цьому фільмі стала першою головною роллю початківця актора Марка Волберга.
• Дія фільму відбувається в Сіетлі та передмістях. На кадрах панорами чітко видно головну архітектурну пам'ятку міста - «космічну голку», вежу Спейс Нідл.
• Сцені фільму, коли Девід за дверима з криком вимагає впустити його до будинку, американський телеканал Bravo присудив 19 місце в складеному ним рейтингу 30 найстрашніших кіноепізодів.
• Гонорар Марка склав 500 тисяч доларів, Різ отримала 200 тисяч.
• Фільм отримав премію каналу «MTV» у 1997 році "Краща пісня" — "Machinehead"
• За роль Девіда Макколла Марк був номінований на премію MTV Movie Award в категорії "кращий лиходій".
рейтинг MPAA: R - особам до 17 років обов'язкова присутність батьків або дорослого опікуна
Вікова категорія: 16+

Тривалість: 01:36:50
Якість: 1080p
Відео:
кодек:
розмір кадру: 1920x816
бітрейт: 7615 кб/с

Аудіо # 1:
мова: українська - Так Треба Продакшн на замовлення
переклад: багатоголосий закадровий
кодек: 5.1
бітрейт: 384 кб/с
Інформація про озвучення:

Ролі озвучили: Марк Волберґ - Дмитро Терещук, Вільям Петерсен - Володимир Терещук, Людмила Чиншева та один нерозпізнаний один жіночий.
Аудіо # 2:
мова: англійська
переклад: оригінал
кодек: 5.1
бітрейт: 448 кб/с

Субтитри:
мова: англійська
тип: програмні (м'які)
формат: *.srt

Збережено оригінальні розділи, як на Blu-ray
MediaInfo
General
Unique ID : 184682587407865639140098478511084007418 (0x8AF092914C4C5FF9847D3CDBF43BEFFA)
Complete name : Fear.1996..1080р.Ukr.Eng.mkv
Format : Matroska
Format version : Version 4 / Version 2
File size : 5.70 GiB
Duration : 1h 36mn
Overall bit rate : 8 432 Kbps
Movie name : Страх / Fear (1996)
Encoded date : UTC 2013-04-26 18:04:13
Writing application : mkvmerge v6.1.0 ('Old Devil') built on Mar 2 2013 14:32:37
Writing library : libebml v1.3.0 + libmatroska v1.4.0

Video
ID : 1
Format : AVC
Format/Info : Advanced Video Codec
Format profile : [email protected]
Format settings, CABAC : Yes
Format settings, ReFrames : 5 frames
Codec ID : V_MPEG4/ISO/AVC
Duration : 1h 36mn
Bit rate : 7 615 Kbps
Width : 1 920 pixels
Height : 816 pixels
Display aspect ratio : 2.35:1
Frame rate mode : Constant
Frame rate : 23.976 fps
Color space : YUV
Chroma subsampling : 4:2:0
Bit depth : 8 bits
Scan type : Progressive
Bits/(Pixel*Frame) : 0.203
Stream size : 5.03 GiB (88%)
Title : Страх / Fear (1996), rip by taty75 [Freeisland]
Writing library : core 129 r2230 1cffe9f
Encoding settings : cabac=1 / ref=5 / deblock=1:-1:-1 / analyse=0x3:0x133 / me=umh / subme=10 / psy=1 / psy_rd=1.00:0.00 / mixed_ref=1 / me_range=32 / chroma_me=1 / trellis=2 / 8x8dct=1 / cqm=0 / deadzone=21,11 / fast_pskip=0 / chroma_qp_offset=-2 / threads=6 / lookahead_threads=1 / sliced_threads=0 / nr=0 / decimate=1 / interlaced=0 / bluray_compat=0 / constrained_intra=0 / bframes=10 / b_pyramid=2 / b_adapt=2 / b_bias=0 / direct=3 / weightb=1 / open_gop=0 / weightp=2 / keyint=230 / keyint_min=22 / scenecut=40 / intra_refresh=0 / rc=2pass / mbtree=0 / bitrate=7615 / ratetol=2.0 / qcomp=1.00 / qpmin=0 / qpmax=51 / qpstep=4 / cplxblur=20.0 / qblur=0.5 / ip_ratio=1.40 / pb_ratio=1.30 / aq=1:1.00
Language : English
Default : Yes
Forced : No
Color primaries : BT.709
Transfer characteristics : BT.709
Matrix coefficients : BT.709

Audio #1
ID : 2
Format : AC-3
Format/Info : Audio Coding 3
Mode extension : CM (complete main)
Format settings, Endianness : Big
Codec ID : A_AC3
Duration : 1h 36mn
Bit rate mode : Constant
Bit rate : 384 Kbps
Channel(s) : 6 channels
Channel positions : Front: L C R, Side: L R, LFE
Sampling rate : 48.0 KHz
Bit depth : 16 bits
Compression mode : Lossy
Stream size : 266 MiB (5%)
Title : MVO [TakTrebaProduction-TRK Ukraina] 5.1 384 kbps [Hurtom-Lan]
Language : Ukrainian
Default : Yes
Forced : No

Audio #2
ID : 3
Format : AC-3
Format/Info : Audio Coding 3
Mode extension : CM (complete main)
Format settings, Endianness : Big
Codec ID : A_AC3
Duration : 1h 36mn
Bit rate mode : Constant
Bit rate : 448 Kbps
Channel(s) : 6 channels
Channel positions : Front: L C R, Side: L R, LFE
Sampling rate : 48.0 KHz
Bit depth : 16 bits
Compression mode : Lossy
Delay relative to video : 13ms
Stream size : 310 MiB (5%)
Title : Original
Language : English
Default : No
Forced : No

Text
ID : 4
Format : UTF-8
Codec ID : S_TEXT/UTF8
Codec ID/Info : UTF-8 Plain Text
Title : Eng full
Language : English
Default : No
Forced : No

Menu
00:00:00.000 : en:00:00:00.000
00:04:48.705 : en:00:04:48.705
00:11:06.123 : en:00:11:06.123
00:15:12.036 : en:00:15:12.036
00:19:51.815 : en:00:19:51.815
00:21:52.644 : en:00:21:52.644
00:30:55.812 : en:00:30:55.812
00:35:03.434 : en:00:35:03.434
00:39:53.099 : en:00:39:53.099
00:48:01.295 : en:00:48:01.295
00:52:12.629 : en:00:52:12.629
00:59:25.103 : en:00:59:25.103
01:05:07.069 : en:01:05:07.069
01:09:29.290 : en:01:09:29.290
01:15:18.222 : en:01:15:18.222
01:22:02.292 : en:01:22:02.292
01:26:38.276 : en:01:26:38.276
01:32:29.502 : en:01:32:29.502


Джерела та подяки: ріп відео, оригінальна доріжка - taty75 (Freeisland), українська доріжка - Lan, запис з ТБ - Merdiff, постер - Vladdrako17 (всі - Гуртом).


Срібний реліз (на рейтинг впливає 50% завантаженого)
 Трекер:    Зареєстрований   

Завантажити / скачати фільм українською



відео для новачків



 Зареєстрований:   2013-04-26 23:03
 Розмір:   5.7 GB 
 Оцінка фільму:   3.6/10 (Голосів: 15)
   
Інші релізи
   Первісний страх / Primal Fear (1996) 3xUkr/Eng Arsenfpu  6 / 0   2.89 GB   2016-04-12 20:25 
   Первісний страх / Primal Fear (1996) [MP4, 640x] apvAltisimo  0 / 0   870 MB   2016-02-16 13:47 
   Первісний страх / Primal Fear (1996) AVC 2xUkr/Eng Yarik M  3 / 0   4.36 GB   2014-07-05 21:36 
   Страх / Fear (1996) [640x270] apvAltisimo  0 / 0   837 MB   2014-03-15 03:59 
   Первісний страх / Primal Fear (1996) 720p 3xUkr/Eng | sub Ukr/Eng/Fre/Por/Spa bodia87  3 / 0   7.9 GB   2014-02-15 17:09 
   Страх / Fear (1996) Ukr/Eng | Sub Eng Lan  0 / 1   1.71 GB   2013-04-18 20:14 
Anonymous 







2013-04-26 23:20  
ЗАЛИШАЙТЕСЬ ЯКОМОГА ДОВШЕ НА РОЗДАЧІ !
СКАЧАВ САМ - ДАЙ СКАЧАТИ ІНШИМ

dniprodd 
Попереджень: 1
Попереджень: 1 


З нами з: 31.10.09
Востаннє: 04.12.16
Повідомлень: 182

2013-04-27 00:21  
Рекомендую НЕ переглядати. Увесь фільм звичайне підліткове кохання, а в кінці 5 хв, як озвірілі молодики ламаються в дім.
Наче подивився серіал бразильський, а в кінці трішки дитячого жаху. Єдине, що цікаво це Марк Волберґ в юному віці.

Anonymous 







2013-04-27 00:40  
"Гострий психологічний фільм. Атмосфера його гідна занесення в аннали кращих створених атмосфер за історію кінематографа. Одна з кращих, насичений молодіжних драм, яка цілком може займати помітне місце в колекції."

"Рекомендується до перегляду всім влюбливим і довірливим дівчатам приблизно 15-18 років. Хоча і для старших - це послужить уроком."

"Я рекомендую фільм «Страх» всім шанувальникам класичних трилерів 90-х років"
(відгуки глядачів з кіносайтів)

terminator.92 
Поважний учасник


З нами з: 11.07.09
Востаннє: 02.12.16
Повідомлень: 159

2013-04-27 13:34  
Фільм хороший. Бачив тільки один раз і досить давно, але сподобався. Напружене кіно.
Матійченко 
Поважний учасник


З нами з: 11.06.08
Востаннє: 28.11.16
Повідомлень: 236

2014-01-10 23:37  
dniprodd написано:

Рекомендую НЕ переглядати. Увесь фільм звичайне підліткове кохання, а в кінці 5 хв, як озвірілі молодики ламаються в дім.
Наче подивився серіал бразильський, а в кінці трішки дитячого жаху. Єдине, що цікаво це Марк Волберґ в юному віці.

На перший погляд воно то так. Але крім цього у фільмі порушуються також вічні проблеми відносин батьків і дітей. Та і психологія розвитку манії Девіда показана досить непогано. Як для своєї першої ролі в кіно Волберг зіграв просто фантастично.

Maters 
VIP


З нами з: 27.03.12
Востаннє: 04.12.16
Повідомлень: 1156

2015-10-16 23:48  
Загалом фільм доволі хороший. Дуже цікаво було побачити Волберга, Візерспун і Мілано такими юними, але купа тих молодіжних сцен із "пристрасними" поцілунками почали трохи нудити)
Ваш часовий пояс: GMT + 2 Години

Нова тема   Відповісти