Завантажити та скачати торренти українською


Сльози сонця / Tears of the Sun (2003) 1080p 2хUkr/Eng | Sub Eng

Нові коментарі

Нова тема   Відповісти
Автор Повідомлення
Anonymous 







2013-04-25 18:32  
Сльози сонця / Tears of the Sun (2003) 1080p 2хUkr/Eng | Sub Eng



"Для того, щоб зло перемогло, потрібно лише одне - щоб хороші люди нічого не робили" Едмунд Берк

Альтернативні українські постери







Жанр: бойовик, трилер, драма, військовий
Країна: США



Кіностудія / кінокомпанія: Cheyenne Enterprises, Michael Lobell Productions, Revolution Studios
Режисер: Антуан Фукуа / Antoine Fuqua
Актори: Брюс Вілліс / Bruce Willis, Моніка Беллуччі / Monica Bellucci, Коул Хаузер / Cole Hauser, Імонн Вокер / Eamonn Walker, Джонні Месснер / Johnny Messner та інші.

Сюжет:
Перед лейтенантом Вотерсом, досвідченим командиром загону Морських котиків, ставлять задачу - проникнути в саме серце Нігерії та розшукати і евакуювати лікарку Ліну Кедрікс - громадянку США та трьох членів католицької міссії, яким загрожує небезпека після військового переворуту в країні. Коли вони знаходять жінку в лікарні для біженців, виявляється, що характер операції треба терміново міняти: лікар заявляє, що покине джунглі, лише тоді коли разом з нею солдати евакуюють ще 70 біженців.


рейтинг MPAA: R - особам до 17 років обов'язкова присутність батьків або дорослого опікуна
Вікова категорія: 16+

Тривалість: 02:00:55
Якість: 1080p
Відео:
кодек:
розмір кадру: 1920x800
бітрейт: 8294 кб/с

Аудіо # 1:
мова: українська - Так Треба Продакшн на замовлення
переклад: багатоголосий закадровий
кодек: 5.1
бітрейт: 448 кб/с
Інформація про озвучення:
Аудіо # 2:
мова: українська
переклад: двоголосий закадровий
кодек: 5.1
бітрейт: 448 кб/с
Інформація про озвучення:

Переклад: Романа Дяченка
Літературний редактор і режисер: Ольга Чернілевська
Звукорежисер: Сергій Вачі
Ролі озвучили: Лариса Руснак і Олесь Гімбаржевський
Аудіо # 3:
мова: англійська
переклад: оригінал
кодек: 5.1
бітрейт: 448 кб/с

Субтитри:
мова: англійська
тип: програмні (м'які)
формат: *.srt

Збережено оригінальні розділи, як на Blu-ray
MediaInfo
General
Unique ID : 192721036942357682023380203480152530270 (0x90FCB8BA850A1A64A215EBEE5617DD5E)
Complete name : Tears.of.the.Sun.2003..1080p.Ukr.Eng.mkv
Format : Matroska
Format version : Version 4 / Version 2
File size : 8.14 GiB
Duration : 2h 0mn
Overall bit rate : 9 634 Kbps
Movie name : Сльози сонця / Tears of the Sun / Слезы солнца (2003)
Encoded date : UTC 2013-04-25 09:26:44
Writing application : mkvmerge v6.1.0 ('Old Devil') built on Mar 2 2013 14:32:37
Writing library : libebml v1.3.0 + libmatroska v1.4.0

Video
ID : 1
Format : AVC
Format/Info : Advanced Video Codec
Format profile : [email protected]
Format settings, CABAC : Yes
Format settings, ReFrames : 5 frames
Codec ID : V_MPEG4/ISO/AVC
Duration : 2h 0mn
Bit rate : 8 294 Kbps
Width : 1 920 pixels
Height : 800 pixels
Display aspect ratio : 2.40:1
Frame rate mode : Constant
Frame rate : 23.976 fps
Color space : YUV
Chroma subsampling : 4:2:0
Bit depth : 8 bits
Scan type : Progressive
Bits/(Pixel*Frame) : 0.225
Stream size : 6.84 GiB (84%)
Title : Сльози сонця / Tears of the Sun / Слезы солнца (2003), rip by Boriy
Writing library : core 130 r2273 b3065e6
Encoding settings : cabac=1 / ref=5 / deblock=1:0:0 / analyse=0x3:0x113 / me=umh / subme=10 / psy=1 / psy_rd=1.00:0.10 / mixed_ref=1 / me_range=32 / chroma_me=1 / trellis=2 / 8x8dct=1 / cqm=0 / deadzone=21,11 / fast_pskip=0 / chroma_qp_offset=-2 / threads=12 / lookahead_threads=1 / sliced_threads=0 / nr=0 / decimate=0 / interlaced=0 / bluray_compat=0 / constrained_intra=0 / bframes=5 / b_pyramid=2 / b_adapt=2 / b_bias=0 / direct=3 / weightb=1 / open_gop=0 / weightp=2 / keyint=240 / keyint_min=23 / scenecut=40 / intra_refresh=0 / rc=2pass / mbtree=0 / bitrate=8294 / ratetol=1.0 / qcomp=0.60 / qpmin=0 / qpmax=69 / qpstep=4 / cplxblur=20.0 / qblur=0.5 / ip_ratio=1.40 / pb_ratio=1.30 / aq=1:0.80
Language : English
Default : Yes
Forced : No

Audio #1
ID : 2
Format : AC-3
Format/Info : Audio Coding 3
Mode extension : CM (complete main)
Format settings, Endianness : Big
Codec ID : A_AC3
Duration : 2h 0mn
Bit rate mode : Constant
Bit rate : 448 Kbps
Channel(s) : 6 channels
Channel positions : Front: L C R, Side: L R, LFE
Sampling rate : 48.0 KHz
Bit depth : 16 bits
Compression mode : Lossy
Stream size : 387 MiB (5%)
Title : MVO [TakTrebaProduction-Inter] 5.1 448 kbps [Hurtom-_oles]
Language : Ukrainian
Default : Yes
Forced : No

Audio #2
ID : 3
Format : AC-3
Format/Info : Audio Coding 3
Mode extension : CM (complete main)
Format settings, Endianness : Big
Codec ID : A_AC3
Duration : 2h 0mn
Bit rate mode : Constant
Bit rate : 448 Kbps
Channel(s) : 6 channels
Channel positions : Front: L C R, Side: L R, LFE
Sampling rate : 48.0 KHz
Bit depth : 16 bits
Compression mode : Lossy
Stream size : 387 MiB (5%)
Title : DVO [1plus1] 5.1 448 kbps [Hurtom-_oles]
Language : Ukrainian
Default : No
Forced : No

Audio #3
ID : 4
Format : AC-3
Format/Info : Audio Coding 3
Mode extension : CM (complete main)
Format settings, Endianness : Big
Codec ID : A_AC3
Duration : 2h 0mn
Bit rate mode : Constant
Bit rate : 448 Kbps
Channel(s) : 6 channels
Channel positions : Front: L C R, Side: L R, LFE
Sampling rate : 48.0 KHz
Bit depth : 16 bits
Compression mode : Lossy
Stream size : 387 MiB (5%)
Title : Original
Language : English
Default : No
Forced : No

Text
ID : 5
Format : UTF-8
Codec ID : S_TEXT/UTF8
Codec ID/Info : UTF-8 Plain Text
Language : English
Default : No
Forced : No

Menu
00:00:00.000 : :Chapter 1
00:07:31.826 : :Chapter 2
00:15:26.467 : :Chapter 3
00:23:23.568 : :Chapter 4
00:30:12.811 : :Chapter 5
00:36:49.665 : :Chapter 6
00:45:13.544 : :Chapter 7
00:53:35.879 : :Chapter 8
01:03:13.080 : :Chapter 9
01:09:24.493 : :Chapter 10
01:16:02.891 : :Chapter 11
01:24:27.604 : :Chapter 12
01:32:14.820 : :Chapter 13
01:39:17.826 : :Chapter 14
01:44:19.503 : :Chapter 15
01:48:34.925 : :Chapter 16



Джерела та подяки: ріп відео, оригінальна доріжка - boriy (рутор), українська доріжка - _oles, запис з ТБ - Romario_O та slavik_v_z, постери - hellforces та bober-mober (всі - Гуртом).

Особиста оцінка: 8 - мені сподобалося


Срібний реліз (на рейтинг впливає 50% завантаженого)
 Трекер:    Зареєстрований   

Завантажити / скачати фільм українською



відео для новачків



 Зареєстрований:   2013-04-25 18:32
 Розмір:   8.14 GB 
 Оцінка фільму:   6.3/10 (Голосів: 27)
   
Інші релізи
Anonymous 







2013-04-25 21:29  
ЗАЛИШАЙТЕСЬ ЯКОМОГА ДОВШЕ НА РОЗДАЧІ !
СКАЧАВ САМ - ДАЙ СКАЧАТИ ІНШИМ


Доріжка від ТакТреба сподобалась більше.

Ua.bos_01 
VIP


З нами з: 22.06.15
Востаннє: 06.12.16
Повідомлень: 1291

2015-08-16 15:53  
Чудовий фільм. Сильний, життєвий, в основі фільму - реальні події. Раджу до перегляду.
Ваш часовий пояс: GMT + 2 Години

Нова тема   Відповісти