Завантажити та скачати торренти українською


Зіткнення з безоднею / Deep Impact (1998) 1080p Ukr/Eng | Sub Eng

Нові коментарі

Нова тема   Відповісти
Автор Повідомлення
Anonymous 







2013-04-24 18:23  
Зіткнення з безоднею / Deep Impact (1998) 1080p Ukr/Eng | Sub Eng



Жанр: фантастика, катастрофа, трилер, драма
Країна: США



Кіностудія / кінокомпанія: Paramount Pictures, DreamWorks SKG, Zanuck/Brown Productions
Режисер: Мімі Ледер / Mimi Leder
Актори: Роберт Дювалл / Robert Duvall, Морган Фрімен / Morgan Freeman, Теа Леоні / Tea Leoni, Ванесса Редгрейв / Vanessa Redgrave, Елайджа Вуд / Elijah Wood, Лілі Собескі / Leelee Sobieski, Мері МакКормак / Mary McCormack, Блер Андервуд / Blair Underwood, Рон Елдард / Ron Eldard, Джон Фавро / Jon Favreau, Максимільян Шелл / Maximilian Schell, Брюс Вайтц / Bruce Weitz, Бетсі Брентлі / Betsy Brantley, О'Ніл Комптон / O'Neal Compton, Річард Шіфф / Richard Schiff, Деніз Кросбі / Denise Crosby, Лора Іннес / Laura Innes, Дугрей Скотт / Dougray Scott, Гері Вернц / Gary Werntz, Райа Кілстедт / Rya Kihlstedt, Джеймс Кромуелл / James Cromwell, Олександр Балуєв.

Сюжет:
Що б Ви почали робити, коли б дізналися, що незабаром величезна комета зіткнется з Землею, і всьому людству загрожує неминуча загибель? Відлік часу до судного дня вже почався. Президент США повідомляє світу, що до «зіткнення з безоднею» залишається рік. На комету направляють корабль «Месія» який повинен підірвати комету. Але від вибуху комета разлітається на дві частини. Ніщо не може врятувати людство. Як поведуть себе люди?...


рейтинг MPAA: PG-13 - дітям до 13 років перегляд не бажаний
Вікова категорія: 12+

Тривалість: 02:01:11
Якість: 1080p
Відео:
кодек:
розмір кадру: 1920x816
бітрейт: 6860 кб/с

Аудіо # 1:
мова: українська
переклад: багатоголосий закадровий
кодек: 5.1
бітрейт: 384 кб/с
Інформація про озвучення:

Ролі озвучили: Олесь Гімбаржевський, Андрій Бурлуцький або Олександр Шепель, Ніна Касторф і Людмила Ардельян.
Аудіо # 2:
мова: англійська
переклад: оригінал
кодек: 5.1
бітрейт: 640 кб/с

Субтитри:
мова: англійська
тип: програмні (м'які)
формат: *.srt

Збережено оригінальні розділи, як на Blu-ray
MediaInfo &


[info]: frame I:1179 Avg QP:15.44 size:162371
[info]: frame P:43586 Avg QP:18.56 size: 63405
[info]: frame B:129580 Avg QP:20.68 size: 25294

General
Unique ID : 207190865815092024230830717442841169721 (0x9BDF825F5DDFFB72802CB83CE01CCF39)
Complete name : Deep.Impact.1998..1080p.Uk.Eng.mkv
Format : Matroska
Format version : Version 4 / Version 2
File size : 6.67 GiB
Duration : 2h 1mn
Overall bit rate : 7 883 Kbps
Movie name : Зіткнення з безоднею / Deep Impact / Столкновение с бездной (1998)
Encoded date : UTC 2013-04-24 09:19:59
Writing application : mkvmerge v6.1.0 ('Old Devil') built on Mar 2 2013 14:32:37
Writing library : libebml v1.3.0 + libmatroska v1.4.0

Video
ID : 1
Format : AVC
Format/Info : Advanced Video Codec
Format profile : [email protected]
Format settings, CABAC : Yes
Format settings, ReFrames : 5 frames
Codec ID : V_MPEG4/ISO/AVC
Duration : 2h 1mn
Bit rate : 6 860 Kbps
Width : 1 920 pixels
Height : 816 pixels
Display aspect ratio : 2.35:1
Frame rate mode : Constant
Frame rate : 23.976 fps
Color space : YUV
Chroma subsampling : 4:2:0
Bit depth : 8 bits
Scan type : Progressive
Bits/(Pixel*Frame) : 0.183
Stream size : 5.67 GiB (85%)
Title : Зіткнення з безоднею / Deep Impact / Столкновение с бездной (1998), rip by Alex260680
Writing library : core 130 r2273 b3065e6
Encoding settings : cabac=1 / ref=5 / deblock=1:-3:-3 / analyse=0x3:0x133 / me=umh / subme=11 / psy=1 / psy_rd=1.00:0.10 / mixed_ref=1 / me_range=32 / chroma_me=1 / trellis=2 / 8x8dct=1 / cqm=0 / deadzone=21,11 / fast_pskip=0 / chroma_qp_offset=-3 / threads=12 / lookahead_threads=1 / sliced_threads=0 / nr=0 / decimate=0 / interlaced=0 / bluray_compat=0 / constrained_intra=0 / bframes=5 / b_pyramid=2 / b_adapt=2 / b_bias=0 / direct=3 / weightb=1 / open_gop=0 / weightp=2 / keyint=240 / keyint_min=23 / scenecut=40 / intra_refresh=0 / rc=2pass / mbtree=0 / bitrate=6860 / ratetol=1.0 / qcomp=0.60 / qpmin=0 / qpmax=69 / qpstep=4 / cplxblur=20.0 / qblur=0.5 / ip_ratio=1.40 / pb_ratio=1.30 / aq=1:0.70
Language : English
Default : Yes
Forced : No

Audio #1
ID : 2
Format : AC-3
Format/Info : Audio Coding 3
Mode extension : CM (complete main)
Format settings, Endianness : Big
Codec ID : A_AC3
Duration : 2h 1mn
Bit rate mode : Constant
Bit rate : 384 Kbps
Channel(s) : 6 channels
Channel positions : Front: L C R, Side: L R, LFE
Sampling rate : 48.0 KHz
Bit depth : 16 bits
Compression mode : Lossy
Stream size : 333 MiB (5%)
Title : MVO ICTV 5.1 384 kbps [Hurtom-_oles]
Language : Ukrainian
Default : Yes
Forced : No

Audio #2
ID : 3
Format : AC-3
Format/Info : Audio Coding 3
Mode extension : CM (complete main)
Format settings, Endianness : Big
Codec ID : A_AC3
Duration : 2h 1mn
Bit rate mode : Constant
Bit rate : 640 Kbps
Channel(s) : 6 channels
Channel positions : Front: L C R, Side: L R, LFE
Sampling rate : 48.0 KHz
Bit depth : 16 bits
Compression mode : Lossy
Stream size : 555 MiB (8%)
Title : Original
Language : English
Default : No
Forced : No

Text
ID : 4
Format : UTF-8
Codec ID : S_TEXT/UTF8
Codec ID/Info : UTF-8 Plain Text
Title : Eng full
Language : English
Default : No
Forced : No

Menu
00:00:00.000 : en:Chapter1
00:02:37.615 : en:Chapter2
00:07:01.754 : en:Chapter3
00:10:53.942 : en:Chapter4
00:17:10.988 : en:Chapter5
00:20:37.861 : en:Chapter6
00:22:21.631 : en:Chapter7
00:25:28.026 : en:Chapter8
00:35:00.931 : en:Chapter9
00:39:13.266 : en:Chapter10
00:43:58.885 : en:Chapter11
00:51:49.021 : en:Chapter12
00:56:17.539 : en:Chapter13
01:00:15.777 : en:Chapter14
01:05:01.813 : en:Chapter15
01:09:42.219 : en:Chapter16
01:13:53.345 : en:Chapter17
01:18:10.600 : en:Chapter18
01:20:08.301 : en:Chapter19
01:22:52.466 : en:Chapter20
01:25:20.323 : en:Chapter21
01:27:46.844 : en:Chapter22
01:31:53.591 : en:Chapter23
01:34:23.073 : en:Chapter24
01:38:45.042 : en:Chapter25
01:40:55.422 : en:Chapter26
01:43:22.279 : en:Chapter27
01:46:15.118 : en:Chapter28
01:51:43.488 : en:Chapter29
01:53:23.837 : en:Chapter30


Джерела та подяки: ріп відео, оригінальна доріжка - alex260680 (рутор), українська доріжка - _oles, запис з ТБ - drakon87 та Merdiff, постер - realnitro (всі - Гуртом).

Особиста оцінка: 8 - мені сподобалося


Срібний реліз (на рейтинг впливає 50% завантаженого)
 Трекер:    Зареєстрований   

Завантажити / скачати фільм українською



відео для новачків



 Зареєстрований:   2013-04-24 18:23
 Розмір:   6.67 GB 
 Оцінка фільму:   4/10 (Голосів: 15)
   
Інші релізи
Anonymous 







2013-04-24 18:59  
ЗАЛИШАЙТЕСЬ ЯКОМОГА ДОВШЕ НА РОЗДАЧІ !
СКАЧАВ САМ - ДАЙ СКАЧАТИ ІНШИМ

Ваш часовий пояс: GMT + 2 Години

Нова тема   Відповісти