Сайлент Хілл. Звільнення / Сайлент Гілл 2 / Silent Hill: Revelation 3D (2012) 1080p Ukr/Eng | Sub Ukr/Eng

Нові коментарі

Нова тема   Відповісти
Автор Повідомлення
ratbol 
Модератор HD


З нами з: 03.02.09
Востаннє: 20.01.17
Повідомлень: 1088

2013-04-22 20:05  
Сайлент Хілл. Звільнення / Сайлент Гілл 2 / Silent Hill: Revelation 3D (2012) 1080p Ukr/Eng | Sub Ukr/Eng

Сайлент Хілл. Звільнення / Сайлент Гілл 2 / Silent Hill: Revelation 3D (2012) 1080p Ukr/Eng | Sub Ukr/Eng


Жанр: жахи, містика, трилер
Країна: Франція, США, Канада



Кіностудія / кінокомпанія: Anibrain Digital Technologies, Davis-Films, Konami
Режисер: Майкл Дж. Бассет
Актори: Аделаїда Клеменс, Кіт Гарінґтон, Кері-Ен Мос, Шон Бін, Рада Мітчел, Малкольм МакДавел, Мартін Донован та інші
Рейтинг MPAA: (дітям до 17 років обов'язкова присутність батьків або дорослого опікуна)

Сюжет:
Гезер переслідують нічні кошмари з одинадцятирічного віку. Вона змушена зі своїм батьком постійно змінювати місце проживання, ховаючись від таємничих сил. Напередодні свого вісімнадцятого дня народження Гезер, повернувшись додому, виявляє, що її батько зник. Єдине, що вона знайшла вдома - намальований на стіні окультний символ з написом «вирушай в Сайлент Хілл».


Тривалість: 01:34:30
Якість: 1080p (BD 3D RUS OpenMate)
Відео:
кодек:
розмір кадру: 1920 х 1080
бітрейт: 9877 кб/с

Аудіо # 1:
мова: українська
переклад: професійний дубльований | Blu-ray
кодек: 5.1
бітрейт: 1536 кб/с
Про дубляж
Фільм дубльовано студією Tretyakoff production 2012 р.
Ролі дублювали: Аделаїда Клеменс — Катерина Буцька, Шон Бін — Михайло Тишин, Рада Мітчел — Олена Узлюк, Михайло Кришталь, Роман Чупіс? та інші.
Аудіо # 2:
мова: англійська
переклад: оригінал
кодек: 5.1
бітрейт: 1536 кб/с

Аудіо # 3:
мова: англійська
переклад: оригінал (коментарі режисера і сценариста Майкла Дж. Бассета)
кодек: 2.0
бітрейт: 128 кб/с

Субтитри:
мова: українська, англійська (SDH)
тип: програмні (м'які)
формат: *.srt

MediaInfo
General
Unique ID : 173463957355160802572611577203680541407 (0x827FF166C2322EDBBEB4D41906CAFADF)
Complete name : F:\_TEMP\RELEASING\Silent Hill Revelation 3D (2012)\VID RIP 1080 (BD RUS OpenMate)\Silent Hill. Revelation 3D (2012) [Ukr, Eng, Com. Sub Ukr, Eng] 1080p [Hurtom].mkv
Format : Matroska
Format version : Version 4 / Version 2
File size : 8.60 GiB
Duration : 1h 34mn
Overall bit rate : 13.0 Mbps
Movie name : Silent Hill: Revelation 3D (2012) [Hurtom]
Encoded date : UTC 2013-04-23 10:59:40
Writing application : mkvmerge v6.1.0 ('Old Devil') built on Mar 2 2013 14:32:37
Writing library : libebml v1.3.0 + libmatroska v1.4.0

Video
ID : 1
Format : AVC
Format/Info : Advanced Video Codec
Format profile : [email protected]
Format settings, CABAC : Yes
Format settings, ReFrames : 4 frames
Codec ID : V_MPEG4/ISO/AVC
Duration : 1h 34mn
Bit rate : 9 877 Kbps
Width : 1 920 pixels
Height : 1 080 pixels
Display aspect ratio : 16:9
Frame rate mode : Constant
Frame rate : 23.976 fps
Color space : YUV
Chroma subsampling : 4:2:0
Bit depth : 8 bits
Scan type : Progressive
Bits/(Pixel*Frame) : 0.199
Stream size : 6.35 GiB (74%)
Title : Ріп від ratbol
Writing library : core 130 r2273 b3065e6
Encoding settings : cabac=1 / ref=4 / deblock=1:-3:-3 / analyse=0x3:0x133 / me=umh / subme=11 / psy=1 / psy_rd=1.00:0.15 / mixed_ref=1 / me_range=32 / chroma_me=1 / trellis=2 / 8x8dct=1 / cqm=0 / deadzone=21,11 / fast_pskip=0 / chroma_qp_offset=-3 / threads=12 / lookahead_threads=1 / sliced_threads=0 / nr=0 / decimate=1 / interlaced=0 / bluray_compat=0 / constrained_intra=0 / bframes=6 / b_pyramid=2 / b_adapt=2 / b_bias=0 / direct=3 / weightb=1 / open_gop=0 / weightp=2 / keyint=240 / keyint_min=23 / scenecut=40 / intra_refresh=0 / rc_lookahead=60 / rc=2pass / mbtree=0 / bitrate=9877 / ratetol=1.0 / qcomp=0.60 / qpmin=0 / qpmax=69 / qpstep=4 / cplxblur=20.0 / qblur=0.5 / vbv_maxrate=62500 / vbv_bufsize=78125 / nal_hrd=none / ip_ratio=1.40 / pb_ratio=1.30 / aq=1:1.00
Language : English
Default : Yes
Forced : No

Audio #1
ID : 2
Format :
Format/Info : Digital Theater Systems
Mode : 16
Format settings, Endianness : Big
Codec ID : A_DTS
Duration : 1h 34mn
Bit rate mode : Constant
Bit rate : 1 509 Kbps
Channel(s) : 6 channels
Channel positions : Front: L C R, Side: L R, LFE
Sampling rate : 48.0 KHz
Bit depth : 24 bits
Compression mode : Lossy
Stream size : 1 020 MiB (12%)
Title : 5.1 [1536 Kbps] — професійний дубльований | Blu-ray
Language : Ukrainian
Default : Yes
Forced : No

Audio #2
ID : 3
Format :
Format/Info : Digital Theater Systems
Mode : 16
Format settings, Endianness : Big
Codec ID : A_DTS
Duration : 1h 34mn
Bit rate mode : Constant
Bit rate : 1 509 Kbps
Channel(s) : 6 channels
Channel positions : Front: L C R, Side: L R, LFE
Sampling rate : 48.0 KHz
Bit depth : 24 bits
Compression mode : Lossy
Stream size : 1 020 MiB (12%)
Title : 5.1 [1536 Kbps] — оригінал
Language : English
Default : No
Forced : No

Audio #3
ID : 4
Format : AC-3
Format/Info : Audio Coding 3
Format profile : Dolby Digital
Mode extension : CM (complete main)
Format settings, Endianness : Big
Codec ID : A_AC3
Duration : 1h 34mn
Bit rate mode : Constant
Bit rate : 128 Kbps
Channel(s) : 2 channels
Channel positions : Front: L R
Sampling rate : 48.0 KHz
Bit depth : 16 bits
Compression mode : Lossy
Stream size : 86.5 MiB (1%)
Title : 2.0 [128 Kbps] — коментарі режисера та сценариста Майкла Дж. Бассета
Language : English
Default : No
Forced : No

Text #1
ID : 5
Format : UTF-8
Codec ID : S_TEXT/UTF8
Codec ID/Info : UTF-8 Plain Text
Language : Ukrainian
Default : No
Forced : No

Text #2
ID : 6
Format : UTF-8
Codec ID : S_TEXT/UTF8
Codec ID/Info : UTF-8 Plain Text
Language : English
Default : No
Forced : No

Menu
00:00:00.000 : :00:00:00.000
00:10:07.023 : :00:10:07.023
00:16:59.268 : :00:16:59.268
00:23:54.141 : :00:23:54.141
00:31:17.667 : :00:31:17.667
00:40:41.856 : :00:40:41.856
00:47:16.917 : :00:47:16.917
00:54:43.989 : :00:54:43.989
01:03:23.800 : :01:03:23.800
01:10:37.400 : :01:10:37.400
01:17:27.017 : :01:17:27.017
01:27:15.355 : :01:27:15.355
log
---[NoImage] [info]: using SAR=1/1
---[NoImage] [info]: using cpu capabilities: MMX2 SSE2Fast SSSE3 SSE4.2 AVX
---[NoImage] [info]: profile High, level 4.1
---[NoImage]
---[NoImage] [info]: frame I:1086 Avg QP:15.92 size:181170
---[NoImage] [info]: frame P:30344 Avg QP:17.93 size: 96938
---[NoImage] [info]: frame B:104521 Avg QP:19.78 size: 36913
---[NoImage] [info]: consecutive B-frames: 3.1% 3.5% 9.2% 11.1% 9.0% 62.0% 2.2%
---[NoImage] [info]: mb I I16..4: 34.3% 31.6% 34.1%
---[NoImage] [info]: mb P I16..4: 10.9% 20.1% 6.4% P16..4: 24.8% 20.2% 4.6% 0.7% 0.0% skip:12.3%
---[NoImage] [info]: mb B I16..4: 2.0% 2.4% 0.7% B16..8: 48.3% 13.3% 1.4% direct: 5.7% skip:26.3% L0:51.6% L1:38.8% BI: 9.6%
---[NoImage] [info]: 8x8 transform intra:50.7% inter:44.6%
---[NoImage] [info]: direct mvs spatial:99.1% temporal:0.9%
---[NoImage] [info]: coded y,uvDC,uvAC intra: 74.6% 76.5% 53.9% inter: 27.6% 30.3% 9.7%
---[NoImage] [info]: i16 v,h,dc,p: 24% 12% 33% 30%
---[NoImage] [info]: i8 v,h,dc,ddl,ddr,vr,hd,vl,hu: 13% 9% 16% 8% 10% 11% 10% 11% 12%
---[NoImage] [info]: i4 v,h,dc,ddl,ddr,vr,hd,vl,hu: 22% 12% 33% 4% 6% 6% 5% 5% 6%
---[NoImage] [info]: i8c dc,h,v,p: 41% 27% 19% 13%
---[NoImage] [info]: Weighted P-Frames: Y:6.4% UV:4.1%
---[NoImage] [info]: ref P L0: 61.2% 6.8% 20.7% 9.7% 1.6% 0.0%
---[NoImage] [info]: ref B L0: 89.6% 8.0% 2.4%
---[NoImage] [info]: ref B L1: 96.6% 3.4%
---[NoImage] [info]: kb/s:9871.00
Скріншоти
Source vs Encode



Порівняння USA і RUS
USA vs RUS






Цитата:
• За українські субтитри подяка Delight.
• За фільмографії акторів подяка Віктору.
• Відеоріп, HD версія - ratbol.
• Побачив цікаву річ при порівнянні трансферів. Як виявилось у деяких епізодах (1, 2 пари скрінів) 16:9, то просто відкадрований 2.35 : 1.


Джерело:


 Трекер:    Зареєстрований   

Завантажити фільм українською



відео для новачків



 Зареєстрований:   2013-04-23 20:24
 Розмір:   8.6 GB 
 Оцінка фільму:   9.9/10 (Голосів: 13)
   
Омельченко 
Свій


З нами з: 11.12.10
Востаннє: 22.01.17
Повідомлень: 108

2013-04-23 11:11  
Тільки Revelation - це не "звільнення", а "одкровення".
pseudogiant 
VIP


З нами з: 24.08.12
Востаннє: 22.01.17
Повідомлень: 806

2013-04-23 15:15  
Цитата:
розмір кадру: 1920 х 1080

Оце якість! Навіть не уявляю.
Сам дивився у кінотеатрі. Фільм вартий того, щоб у такій якості його подивитися.

bot 
робот


З нами з: 30.09.07
Востаннє: 26.05.05
Повідомлень: 16371

2013-04-23 20:22  
Тему перенесено з Анонси релізів від Відео Гуртом до форуму Фільми в HD


ratbol

ХОРОБРЕ СЕРЦЕ 
Частий відвідувач


З нами з: 24.06.11
Востаннє: 08.11.16
Повідомлень: 49

2013-04-23 20:51  
Дякую=)))
RektoR 
Відео Гуртом - підтримка та поширення
Відео Гуртом - підтримка та поширення


З нами з: 25.11.09
Востаннє: 21.01.17
Повідомлень: 25

2013-04-24 20:47  
Чесно кажучи, від фільму очікував більше.
borgir88 
Новенький


З нами з: 30.01.16
Востаннє: 22.01.17
Повідомлень: 1

2017-01-19 11:09  
Встаньте на раздачу, будь-ласка!
Ваш часовий пояс: GMT + 2 Години

Нова тема   Відповісти